pdf721615074
小有名气

[2020] [港台] [纪实] [全集] 台湾中视-[大陆寻奇] 河南 淅川县

-->

台湾中视-[大陆寻奇] 河南 淅川县


Taiwan China Television-[Mainland China Discovery] Xichuan County, Henan DD2.0


General

Unique ID                      : 279824625780243482727337524465694920066 (0xD284433989C38B312162A21D11FBCD82)

Complete name                  : C:\临时视频\台湾中视-[大陆寻奇].河南.淅川县.mkv

Format                         : Matroska

Format version                 : Version 4

File size                      : 5.18 GiB

Duration                       : 36 min 37 s

Overall bit rate mode          : Variable

Overall bit rate               : 20.2 Mb/s

Encoded date                   : UTC 2021-02-16 21:23:40

Writing application            : mkvmerge v47.0.0 ('Black Flag') 64-bit

Writing library                : libebml v1.3.10 + libmatroska v1.5.2


Video

ID                             : 2

Format                         : AVC

Format/Info                    : Advanced Video Codec

Format profile                 : [email protected]

HDR format                     : SMPTE ST 2086, HDR10 compatible

Format settings                : 1 Ref Frames

Format settings, CABAC         : No

Format settings, Reference fra : 1 frame

Format settings, GOP           : M=1, N=60

Codec ID                       : V_MPEG4/ISO/AVC

Duration                       : 36 min 37 s

Bit rate mode                  : Variable

Bit rate                       : 19.6 Mb/s

Maximum bit rate               : 40.0 Mb/s

Width                          : 1 920 pixels

Height                         : 1 080 pixels

Display aspect ratio           : 16:10

Frame rate mode                : Constant

Frame rate                     : 60.000 FPS

Color space                    : YUV

Chroma subsampling             : 4:2:0

Bit depth                      : 8 bits

Scan type                      : Progressive

Bits/(Pixel*Frame)             : 0.158

Stream size                    : 5.01 GiB (97%)

Default                        : Yes

Forced                         : No

Mastering display color primar : R: x=0.843080 y=1.284420, G: x=1.272940 y=0.392940, B: x=0.479840 y=0.913280, White point: x=0.460200 y=0.092200

Mastering display luminance    : min: 268520.9610 cd/m2, max: 55645 cd/m2

Maximum Content Light Level    : 49254 cd/m2

Maximum Frame-Average Light Le : 34379 cd/m2


Audio

ID                             : 1

Format                         : AC-3

Format/Info                    : Audio Coding 3

Commercial name                : Dolby Digital

Codec ID                       : A_AC3

Duration                       : 36 min 37 s

Bit rate mode                  : Constant

Bit rate                       : 640 kb/s

Channel(s)                     : 2 channels

Channel layout                 : L R

Sampling rate                  : 48.0 kHz

Frame rate                     : 31.250 FPS (1536 SPF)

Compression mode               : Lossy

Stream size                    : 168 MiB (3%)

Service kind                   : Complete Main

Default                        : Yes

Forced                         : No



1 个附件 售价 大小 下载 时间

台湾中视-[大陆寻奇].河南.淅川县.mkv.torrent 0 金币 13.45K 6453 次 7月前

#1楼
发帖时间:2021-02-19 07:57:48   |   回复数:1
chulps
一代宗师
~ 珍惜+支持 ~
7月前 #2楼
游客组