原生系统
一派掌门

[2020] [内地] [真人] [合集] [网盘下载][明星大侦探.第一至六季][全86集][国语中字.有台标][WEB-MP4][1080P][YYDS][失效不免费补]

-->


◎译  名 犯罪现场 / 犯罪现场中国版

◎片  名 明星大侦探 第一至第六季

◎年  代 2016-2020

◎产  地 中国大陆

◎类  别 真人秀

◎语  言 汉语普通话

◎首播日期 2016-03-27(中国大陆)

◎IMDb评分 8.6/10 from 82 users

◎IMDb链接 https://www.imdb.com/title/tt9332934

◎豆瓣评分 9.3/10 from 91468 users

◎豆瓣链接 https://movie.douban.com/subject/26737158

◎集  数 共86

◎片  长 约75分钟

◎导  演 何忱 Chen He

◎编  剧 张梓燚 Ziyi Zhang

◎主  演 何炅 Jiong He

       撒贝宁 Beining Sa

       乔振宇 Zhenyu Qiao

       王鸥 Ou Wang

       吴映洁 Gemma Wu

       白敬亭 Jingting Bai

       大张伟 Wowkie Zhang

       陈若轩 Ruoxuan Chen

       刘昊然 Haoran Liu

       欧阳娜娜 Nana Ouyang

       张若昀 Ruoyun Zhang

       魏大勋 Daxun Wei

       孙坚 Jian Sun

       蔡康永 Kevin Tsai

       王嘉尔 Jackson Wang

       炎亚纶 Aaron Yan

       朱元冰 Ryan Zhu


◎标  签 推理 | 综艺 | 悬疑 | 真人秀 | 撒贝宁 | 何炅 | 白敬亭 | 吴映洁


◎简  介


  《明星大侦探》作为中国首档明星推理综艺秀,节目创意源自韩国《犯罪现场》,内容包括“30%跌宕剧情+40%综艺搞笑+30%智能推理”,堪称综艺版的《唐人街探案》。韩国原版付费频道收视1.54%(收费频道VS普通频道收视比率为10倍),受众集中为高知、高收入人群。超高收视、超高人气及好口碑让节目组对本土化悬疑推理大IP《明星大侦探》的播出信心满满。

  另外,从《神探夏洛克》、《心理罪》、《唐人街探案》等悬疑推理题材电视剧、电影的热播情况来看,一大波忠实“悬疑推理”粉丝基础,佐证了《明星大侦探》的巨大市场潜力。

  据了解,每期节目6位嘉宾参与,1人扮演侦探,5人为嫌疑人。每期节目解决1起不可思议的杀人事件,真凶就在嫌疑人之中。6位玩家需在现场6-8个场景内,寻找线索指认真凶!据悉,节目将在芒果TV和芒果直播APP平台播出,网友可以全程参与互动竞猜嫌疑人,还可点播回看精彩剧情。


◎获奖情况


  第3届豆瓣电影年度榜单  (2016)

  最受关注的大陆网络综艺(提名)



General


Complete name               : 收官大会:何撒PK金条王!-2020.03.17期.mp4

Format                      : Matroska

Format version              : Version 4

File size                   : 1.51 GiB

Duration                    : 1 h 22 min

Overall bit rate            : 2 602 kb/s

Encoded date                : UTC 2021-03-17 04:20:51

Writing application         : mkvmerge v22.0.0 ('At The End Of The World') 64-bit

Writing library             : libebml v1.3.5 + libmatroska v1.4.8

Cover                       : Yes

Attachments                 : cover.png

FileExtension_Invalid       : mkv mk3d mka mks


Video

ID                          : 1

Format                      : AVC

Format/Info                 : Advanced Video Codec

Format profile              : [email protected]

Format settings             : CABAC / 4 Ref Frames

Format settings, CABAC      : Yes

Format settings, Reference  : 4 frames

Codec ID                    : V_MPEG4/ISO/AVC

Duration                    : 1 h 22 min

Bit rate                    : 2 410 kb/s

Width                       : 1 920 pixels

Height                      : 1 080 pixels

Display aspect ratio        : 16:9

Frame rate mode             : Variable

Frame rate                  : 24.906 FPS

Original frame rate         : 25.000 FPS

Color space                 : YUV

Chroma subsampling          : 4:2:0

Bit depth                   : 8 bits

Scan type                   : Progressive

Bits/(Pixel*Frame)          : 0.047

Stream size                 : 1.39 GiB (93%)

Writing library             : 200910.mgtv.com

Default                     : Yes

Forced                      : No


Audio

ID                          : 2

Format                      : AAC LC

Format/Info                 : Advanced Audio Codec Low Complexity

Codec ID                    : A_AAC-2

Duration                    : 1 h 22 min

Bit rate                    : 192 kb/s

Channel(s)                  : 2 channels

Channel layout              : L R

Sampling rate               : 44.1 kHz

Frame rate                  : 43.066 FPS (1024 SPF)

Compression mode            : Lossy

Stream size                 : 112 MiB (7%)

Default                     : Yes

Forced                      : No


本人发布的种子请使用专业BT下载工具:

UT,Bitcomet,qBittorrent,Xdown开启上传后再下载!!!

使用迅雷或度盘离线可能会没速度!!!


视频的网盘资源均在视频后缀(如mp4或mkv)后又跟随了.xy(mp4.xy或mkv.xy)用以混淆官方视听!
并且加密了文件名,设置了独有的解压密码,请使用WinRAR解压,使用好压或其他可能会出错!
已完结剧集不再分集打包上传,整体打包后分卷,无法单独下载某一集,需要全部下载后一起解压,敬请知晓!
请各位下载的坛友先保存至自己的网盘,然后再进行下载!!!
不要直接在线观看或者解压,否则会很快被网盘官方发觉并和谐!


阿里云盘后缀名凡是“PDF”的,请在下载完成后将后缀名“PDF”修改为“rar”,即可正常解压,观看!

目前阿里云盘上传和下载均不限速,趁着这段“免费VIP”的时间,就暂时放弃度盘吧!


请下载完成的朋友自觉做种一段时间,小水管出种不易,且下且珍惜,谢谢!!!


解压请使用官方原版WinRAR,使用破解版或者好压等软件可能会出错,感谢所有赞赏的朋友!!!


#1楼
发帖时间:2021-09-04 12:44:14   |   回复数:0
游客组