conanlcg
超级版主

[2018] [印度] [剧情] [BD-1080P] 孟买酒店/失控危城[外挂字幕] Hotel.Mumbai.2018.1080p.BluRay.X264-AMIABLE 10.94GB

-->






帖子完整标题:孟买酒店/失控危城 Hotel.Mumbai.2018.1080p.BluRay.X264-AMIABLE 10.94GB






◎译  名 孟买酒店 / 失控危城(台)
◎片  名 Hotel Mumbai
◎年  代 2018
◎产  地 澳大利亚 / 美国 / 印度
◎类  别 剧情 / 惊悚 / 历史
◎语  言 英语 / 印地语 / 旁遮普语 / 希腊语 / 俄语 / 阿拉伯语 / 乌尔都语 / 波斯语
◎上映日期 2018-09-07(多伦多电影节) / 2018-10-10(阿德莱德电影节)
◎IMDb评分  7.8/10 from 6952 users
◎IMDb链接  http://www.imdb.com/title/tt5461944
◎豆瓣评分 8.4/10 from 1475 users
◎豆瓣链接 https://movie.douban.com/subject/26794701/
◎片  长 125分钟
◎导  演 安东尼·马拉斯 Anthony Maras
◎编  剧 安东尼·马拉斯 Anthony Maras / 约翰·科里 John Collee
◎主  演 艾米·汉莫 Armie Hammer
      纳赞宁·波妮阿蒂 Nazanin Boniadi
      戴夫·帕特尔 Dev Patel
      詹森·艾萨克 Jason Isaacs
      阿努潘·凯尔 Anupam Kher
      刘承羽 Natasha Liu Bordizzo
      安格斯·麦克拉伦 Angus McLaren
      萨钦·乔伯 Sachin Joab
      蒂尔达·格哈姆-哈维 Tilda Cobham-Hervey
      维品·沙尔马 Vipin Sharma
      阿布罗伊·辛格 Abhiroy Singh
      迪维亚·阿妮 Divya Unny
      桑迪普·博雅卡 Sandeep Bhojak
      Zenia Starr


◎标  签 印度 | 犯罪 | 剧情 | 惊悚 | 历史 | 2018 | 澳大利亚 | 电影

◎简  介  

  影片真实再现震惊世界的“印度9·11”孟买恐袭事件,2008年11月,著名的泰姬陵酒店意外遭到恐怖分子入侵,恐怖分子无差别行凶,让整个酒店陷入绝望之境,百余名酒店住客及员工被困,无人得知何时能等来救援,一场与死神的赛跑就此开启…

Video
ID                                       : 1
Format                                   : AVC
Format/Info                              : Advanced Video Codec
Format profile                           : [email protected]
Format settings                          : CABAC / 5 Ref Frames
Format settings, CABAC                   : Yes
Format settings, ReFrames                : 5 frames
Codec ID                                 : V_MPEG4/ISO/AVC
Duration                                 : 2 h 2 min
Bit rate                                 : 11.2 Mb/s
Width                                    : 1 920 pixels
Height                                   : 808 pixels
Display aspect ratio                     : 2.40:1
Frame rate mode                          : Constant
Frame rate                               : 23.976 (24000/1001) FPS
Color space                              : YUV
Chroma subsampling                       : 4:2:0
Bit depth                                : 8 bits
Scan type                                : Progressive
Bits/(Pixel*Frame)                       : 0.302
Stream size                              : 9.63 GiB (88%)
Writing library                          : x264 core 157 r2970 5493be8
Encoding settings                        : cabac=1 / ref=5 / deblock=1:-3:-3 / analyse=0x3:0x113 / me=umh / subme=8 / psy=1 / psy_rd=1.00:0.00 / mixed_ref=1 / me_range=32 / chroma_me=1 / trellis=2 / 8x8dct=1 / cqm=0 / deadzone=21,11 / fast_pskip=1 / chroma_qp_offset=-2 / threads=25 / lookahead_threads=4 / sliced_threads=0 / nr=0 / decimate=1 / interlaced=0 / bluray_compat=0 / constrained_intra=0 / bframes=3 / b_pyramid=2 / b_adapt=2 / b_bias=0 / direct=3 / weightb=1 / open_gop=0 / weightp=2 / keyint=240 / keyint_min=24 / scenecut=40 / intra_refresh=0 / rc_lookahead=50 / rc=2pass / mbtree=1 / bitrate=11226 / ratetol=1.0 / qcomp=0.60 / qpmin=0 / qpmax=69 / qpstep=4 / cplxblur=20.0 / qblur=0.5 / ip_ratio=1.40 / aq=3:0.80
Default                                  : Yes
Forced                                   : No

Audio
ID                                       : 2
Format                                   : DTS
Format/Info                              : Digital Theater Systems
Codec ID                                 : A_DTS
Duration                                 : 2 h 2 min
Bit rate mode                            : Constant
Bit rate                                 : 1 509 kb/s
Channel(s)                               : 6 channels
Channel layout                           : C L R Ls Rs LFE
Sampling rate                            : 48.0 kHz
Frame rate                               : 93.750 FPS (512 SPF)
Bit depth                                : 24 bits
Compression mode                         : Lossy
Stream size                              : 1.30 GiB (12%)
Language                                 : English
Default                                  : Yes
Forced                                   : No

Text #1
ID                                       : 3
Format                                   : UTF-8
Codec ID                                 : S_TEXT/UTF8
Codec ID/Info                            : UTF-8 Plain Text
Duration                                 : 1 h 52 min
Bit rate                                 : 33 b/s
Count of elements                        : 915
Stream size                              : 27.9 KiB (0%)
Language                                 : English
Default                                  : No
Forced                                   : No

Text #2
ID                                       : 4
Format                                   : UTF-8
Codec ID                                 : S_TEXT/UTF8
Codec ID/Info                            : UTF-8 Plain Text
Duration                                 : 1 h 55 min
Bit rate                                 : 39 b/s
Count of elements                        : 1124
Stream size                              : 33.0 KiB (0%)
Title                                    : SDH
Language                                 : English
Default                                  : No
Forced                                   : No

Menu
00:00:00.000                             : en:Chapter 01
00:06:38.481                             : en:Chapter 02
00:15:51.742                             : en:Chapter 03
00:24:23.420                             : en:Chapter 04
00:36:02.869                             : en:Chapter 05
00:48:47.341                             : en:Chapter 06
01:00:39.177                             : en:Chapter 07
01:15:30.568                             : en:Chapter 08
01:27:51.183                             : en:Chapter 09
01:37:14.579                             : en:Chapter 10
01:46:32.553                             : en:Chapter 11
01:55:33.635                             : en:Chapter 12






2 个附件 售价 大小 下载 时间

Hotel.Mumbai.2018.1080p.BluRay.X264-AMIABLE.torrent 0 金币 55.55K 19565 次 14天前

[人人影视]孟买酒店.Hotel.Mumbai.[蓝光.1080P]中英文字幕.zip 0 金币 434.77K 10668 次 14天前

#1楼
发帖时间:2019-06-10 18:48:36   |   回复数:13
show55667878
小有名气
感謝分享藍光版本
14天前 #2楼
liyouchai
超凡入圣№
谢谢楼主分享资源
14天前 #3楼
linbr
武林高手
多谢楼主分享
14天前 #4楼
Charon
武林高手
感谢分享
14天前 #5楼
tanchoohoon
武林盟主
感谢楼主的无私分享
13天前 #6楼
feung18
武林高手
感謝大大無私分享 ......................
13天前 #7楼
eeds2014
无名小卒
这个有字幕,太好了,谢谢了
13天前 #8楼
wybt
武林高手
同意楼上,字幕好。
12天前 #9楼
MovieShaw
无名小卒
压制版 链接:https://pan.baidu.com/s/1zoXxfaCs1VAxHfm7xRpufQ 提取码:a6zi 复制这段内容后打开百度网盘手机App,操作更方便哦
11天前 #10楼
疯狂的温柔
无名小卒
感谢楼主的分享
11天前 #11楼
fm0009
小有名气
百度和迅雷,都下载不了了。。。
7天前 #12楼
Kant.Wang
武林高手
种子是不是有问题, 下载不了唉
6天前 #13楼
yzcxw
武林高手
谢谢分享
22小时前 #14楼
游客组