conanlcg
超级版主

[2010] [香港] [剧情] [BD-1080P] 東風破 Merry.Go.Round.2010.1080p.BluRay.x264-aBD 7.94GB

-->

帖子完整标题:東風破 Merry.Go.Round.2010.1080p.BluRay.x264-aBD 7.94GB




◎译  名 东风破
◎片  名 東風破
◎年  代 2010
◎产  地 香港
◎类  别 剧情
◎语  言 粤语
◎上映日期 2010-11-11
◎IMDb评分 7.3/10 from 200 users
◎IMDb链接 http://www.imdb.com/title/tt1756487
◎豆瓣评分 7.6/10 from 6380 users
◎豆瓣链接 https://movie.douban.com/subject/4739986/
◎片  长 125分钟
◎导  演 麦婉欣 Yan Yan Mak / 鄭思傑
◎编  剧 麦婉欣 Yan Yan Mak / 鄭思傑
◎主  演 官恩娜 Ella Koon
      周俊伟 Lawrence Chou
      泰迪·罗宾 Teddy Robin
      苗可秀 Nora Miao
      何韵诗 Wan-Si Ho
      张同祖 Tongzu Zhang
      邵音音 Yam Yam Siu
      吕聿来
      刘浩龙 Wilfred Lau


◎标  签 香港电影 | 香港 | 官恩娜 | 文艺 | 麦婉欣 | 2010 | 何韵诗 | 泰迪罗宾

◎简  介

  女主角官恩娜曾因此片获得2012 澳大利亚悉尼金考拉国际华语电影节最佳女主角奖。
一个因此长期滥用药物而频临死亡的的华裔女孩(官恩娜 饰),离开熟悉的旧金山就为去香港见一个只在网上聊天的网友三藩市。途中遇到一个终日待在棺材铺,不与外界节流的坏脾气老伯(泰迪·罗宾 Te ddy Robin 饰)。而旧金山另外一个几十年没有怎么出远门的女中医(苗可秀 饰),不得不为了一份速递屋契回去久别的香港。南北行药材铺少东家(周俊伟 饰),却从来不喜欢自己的家族生意。这些人的相遇到底是巧合还是命运的安排,看似陌生人似乎能给对方带去不同凡响的影响......

◎获奖情况

  第30届香港电影金像奖(2011)
  最佳摄影(提名) 关智耀
  最佳原创电影歌曲



Video
ID : 1
Format : AVC
Format/Info : Advanced Video Codec
Format profile : [email protected]
Format settings : CABAC / 5 Ref Frames
Format settings, CABAC : Yes
Format settings, ReFrames : 5 frames
Codec ID : V_MPEG4/ISO/AVC
Duration : 2 h 4 min
Bit rate : 8 487 kb/s
Width : 1 920 pixels
Height : 824 pixels
Display aspect ratio : 2.35:1
Frame rate mode : Constant
Frame rate : 24.000 FPS
Color space : YUV
Chroma subsampling : 4:2:0
Bit depth : 8 bits
Scan type : Progressive
Bits/(Pixel*Frame) : 0.224
Stream size : 7.23 GiB (91%)
Writing library : x264 core 112 r1834 a51816a
Encoding settings : cabac=1 / ref=5 / deblock=1:-1:-1 / analyse=0x3:0x113 / me=umh / subme=7 / psy=1 / psy_rd=1.00:0.00 / mixed_ref=1 / me_range=16 / chroma_me=1 / trellis=1 / 8x8dct=1 / cqm=0 / deadzone=21,11 / fast_pskip=1 / chroma_qp_offset=-2 / threads=12 / sliced_threads=0 / nr=0 / decimate=1 / interlaced=0 / constrained_intra=0 / bframes=3 / b_pyramid=2 / b_adapt=2 / b_bias=0 / direct=3 / weightb=1 / open_gop=0 / weightp=2 / keyint=250 / keyint_min=24 / scenecut=40 / intra_refresh=0 / rc_lookahead=40 / rc=2pass / mbtree=1 / bitrate=8487 / ratetol=1.0 / qcomp=0.60 / qpmin=0 / qpmax=51 / qpstep=4 / cplxblur=20.0 / qblur=0.5 / vbv_maxrate=50000 / vbv_bufsize=50000 / ip_ratio=1.40 / aq=1:1.00 / nal_hrd=none
Language : Chinese
Default : Yes
Forced : Yes

Audio
ID : 2
Format : AC-3
Format/Info : Audio Coding 3
Commercial name : Dolby Digital
Codec ID : A_AC3
Duration : 2 h 4 min
Bit rate mode : Constant
Bit rate : 640 kb/s
Channel(s) : 6 channels
Channel layout : L R C LFE Ls Rs
Sampling rate : 48.0 kHz
Frame rate : 31.250 FPS (1536 SPF)
Bit depth : 16 bits
Compression mode : Lossy
Stream size : 570 MiB (7%)
Language : Chinese
Service kind : Complete Main
Default : Yes
Forced : Yes

Text
ID : 3
Format : UTF-8
Codec ID : S_TEXT/UTF8
Codec ID/Info : UTF-8 Plain Text
Language : English
Default : Yes
Forced : No





1 个附件 售价 大小 下载 时间

Merry.Go.Round.2010.1080p.BluRay.x264-aBD.torrent 0 金币 40.18K 1351 次 12天前

#1楼
发帖时间:2019-06-13 01:27:51   |   回复数:4
liyouchai
超凡入圣№
谢谢楼主分享资源
12天前 #2楼
jokingcheung
一代宗师
谢谢分享
12天前 #3楼
911degrees
隐世仙人♂
非常感谢,谢谢分享
12天前 #4楼
tanchoohoon
武林盟主
感谢楼主的无私分享
11天前 #5楼
游客组