conanlcg
超级版主

[更 早] [欧美] [剧情] [BD-720P] 海洋深处/失踪时刻 The.Deep.End.of.the.Ocean.1999.720p.BluRay.x264-BRMP 4.37GB

-->

帖子完整标题:海洋深处/失踪时刻 The.Deep.End.of.the.Ocean.1999.720p.BluRay.x264-BRMP 4.37GB




◎译  名 海洋深处 / 失踪时刻 / 舍不得的抉择
◎片  名 The Deep End of the Ocean
◎年  代 1999
◎产  地 美国
◎类  别 剧情
◎语  言 英语
◎上映日期 1999-03-12
◎IMDb评分 6.4/10 from 12033 users
◎IMDb链接 http://www.imdb.com/title/tt0120646
◎豆瓣评分 7.6/10 from 279 users
◎豆瓣链接 https://movie.douban.com/subject/1297817/
◎片  长 106 分钟
◎导  演 Ulu Grosbard
◎编  剧 Jacquelyn Mitchard / Stephen Schiff
◎主  演 米歇尔·菲佛 Michelle Pfeiffer
      特里特·威廉斯 Treat Williams
      乌比·戈德堡 Whoopi Goldberg


◎标  签 美国 | 家庭 | 亲情 | 美国电影 | 剧情 | MichellePfeiffer | 1999 | 电影

◎简  介

  贝斯(米歇尔·菲佛 Michelle Pfeiffer 饰)是一名非常成功的摄影师,和丈夫派特(
特里特·威廉斯 Treat Williams 饰)一起抚养着三个可爱的孩子文森特(乔纳森·杰克逊 Jonathan Jackson 饰)、本(瑞恩·莫里曼 Ryan Merriman 饰)以及凯丽(阿丽夏·潘娜维加 Alexa PenaVega 饰)。一天,在一场排队中,最小的本走丢失踪了,尽管贝斯和派特找来了全城最精明强干的警探,都未能觅得本的下落。这巨大的打击让贝斯的家庭濒临了崩溃的边缘。
一晃眼九年过去了,贝斯和派特渐渐走出了过去的阴影,全家人在芝加哥开了一家餐馆。一天,一个名为山姆的男孩敲响了贝斯家的们,请求为他们修剪后院草坪。让贝斯没有想到的是,这个山姆,竟然就是从前失踪的本。

Video
ID : 1
Format : AVC
Format/Info : Advanced Video Codec
Format profile : [email protected]
Format settings : CABAC / 5 Ref Frames
Format settings, CABAC : Yes
Format settings, ReFrames : 5 frames
Codec ID : V_MPEG4/ISO/AVC
Duration : 1 h 48 min
Bit rate : 5 375 kb/s
Width : 1 280 pixels
Height : 696 pixels
Display aspect ratio : 1.85:1
Frame rate mode : Constant
Frame rate : 23.976 (24000/1001) FPS
Color space : YUV
Chroma subsampling : 4:2:0
Bit depth : 8 bits
Scan type : Progressive
Bits/(Pixel*Frame) : 0.252
Stream size : 4.08 GiB (93%)
Writing library : x264 core 157 r2969 d4099dd
Encoding settings : cabac=1 / ref=5 / deblock=1:0:0 / analyse=0x3:0x133 / me=umh / subme=7 / psy=1 / psy_rd=1.00:0.00 / mixed_ref=1 / me_range=16 / chroma_me=1 / trellis=1 / 8x8dct=1 / cqm=0 / deadzone=21,11 / fast_pskip=0 / chroma_qp_offset=-2 / threads=18 / lookahead_threads=3 / sliced_threads=0 / nr=0 / decimate=1 / interlaced=0 / bluray_compat=0 / constrained_intra=0 / bframes=3 / b_pyramid=2 / b_adapt=1 / b_bias=0 / direct=1 / weightb=1 / open_gop=0 / weightp=2 / keyint=240 / keyint_min=23 / scenecut=40 / intra_refresh=0 / rc_lookahead=40 / rc=2pass / mbtree=1 / bitrate=5375 / ratetol=1.0 / qcomp=0.60 / qpmin=10 / qpmax=51 / qpstep=4 / cplxblur=20.0 / qblur=0.5 / ip_ratio=1.40 / aq=1:1.00
Default : Yes
Forced : No

Audio
ID : 2
Format : AC-3
Format/Info : Audio Coding 3
Commercial name : Dolby Digital
Codec ID : A_AC3
Duration : 1 h 48 min
Bit rate mode : Constant
Bit rate : 384 kb/s
Channel(s) : 2 channels
Channel layout : L R
Sampling rate : 48.0 kHz
Frame rate : 31.250 FPS (1536 SPF)
Bit depth : 16 bits
Compression mode : Lossy
Stream size : 298 MiB (7%)
Language : English
Service kind : Complete Main
Default : Yes
Forced : No

Menu
00:00:00.000 : en:Chapter 01
00:11:21.931 : en:Chapter 02
00:23:26.488 : en:Chapter 03
00:34:05.460 : en:Chapter 04
00:42:04.272 : en:Chapter 05
00:54:27.973 : en:Chapter 06
01:03:02.028 : en:Chapter 07
01:13:25.234 : en:Chapter 08
01:23:39.765 : en:Chapter 09
01:33:01.910 : en:Chapter 10
01:46:00.896 : en:Chapter 11





1 个附件 售价 大小 下载 时间

The.Deep.End.of.the.Ocean.1999.720p.BluRay.x264-BRMP.torrent 0 金币 44.58K 287 次 12天前

#1楼
发帖时间:2019-06-13 01:45:26   |   回复数:2
liyouchai
超凡入圣№
谢谢楼主分享资源
12天前 #2楼
911degrees
隐世仙人♂
非常感谢,谢谢分享
12天前 #3楼
游客组