conanlcg
超级版主

[更 早] [其他] [剧情] [BD-720P] 第29轨 Track.29.1988.720p.BluRay.x264-SPOOKS 3.28GB

-->

帖子完整标题:第29轨 Track.29.1988.720p.BluRay.x264-SPOOKS 3.28GB




◎译  名 第29轨
◎片  名 Track 29
◎年  代 1988
◎产  地 英国 / 美国
◎类  别 剧情 / 悬疑
◎语  言 英语
◎上映日期 1988-08-05
◎IMDb评分 6.0/10 from 1725 users
◎IMDb链接 http://www.imdb.com/title/tt0096294
◎豆瓣评分 7.8/10 from 77 users
◎豆瓣链接 https://movie.douban.com/subject/1739376/
◎片  长 Germany: 86 分钟
◎导  演 Nicolas Roeg
◎编  剧 丹尼斯·波特 Dennis Potter
◎主  演 加里·奥德曼 Gary Oldman
      泰莉莎·拉塞尔 Theresa Russell
      克里斯托弗·洛伊德 Christopher Lloyd


◎标  签 GaryOldman | 英国 | 悬疑 | 英国电影 | 1988 | Gary_Oldman | 1980s | NicolasRoeg

◎简  介

  A doctor's wife tires of his obsession with model trains, and spends her days wondering about the son she gave up for adoption at birth. While eating at a roadside cafe, she encounters a British hitchhiker, who turns out to be her son. They spend time together trying to find a bond. The son begins to hate the husband, and the wife begins worrying about the safety of her husband and his train set. Written by Ed Sutton {[email protected]}
For this psychological drama, Dennis Potter reworked his 1974 TV play, Schmoedipus, transposing the setting from London to the United States. The title "Track 29" is taken from the lyrics of "Chattanooga Choo Choo." Distraught and dreamy Linda Henry (Theresa Russell) complains to her husband, surgeon Henry Henry (Christopher Lloyd), about their sex-less, childless marriage, but he's obsessed with his basement model railroad layout and also engaged in an affair with a nurse (Sandra Bernhard). When mysterious stranger Martin (Gary Oldman) drops in on Linda, he claims to be her long-lost illegitimate son. As seen in flashbacks, the 16-year-old Linda was raped at a carnival by a man (Gary Oldman) who resembles Martin. Subsequent events hint at Martin as a delusion, a product erupting from Linda's fantasy world. Written by Bhob Stewart {[email protected]}

Video
ID : 1
Format : AVC
Format/Info : Advanced Video Codec
Format profile : [email protected]
Format settings : CABAC / 9 Ref Frames
Format settings, CABAC : Yes
Format settings, ReFrames : 9 frames
Codec ID : V_MPEG4/ISO/AVC
Duration : 1 h 30 min
Bit rate : 4 558 kb/s
Width : 1 280 pixels
Height : 696 pixels
Display aspect ratio : 1.85:1
Frame rate mode : Constant
Frame rate : 23.976 (24000/1001) FPS
Color space : YUV
Chroma subsampling : 4:2:0
Bit depth : 8 bits
Scan type : Progressive
Bits/(Pixel*Frame) : 0.213
Stream size : 2.87 GiB (88%)
Writing library : x264 core 157 r2969 d4099dd
Encoding settings : cabac=1 / ref=9 / deblock=1:-3:-3 / analyse=0x3:0x133 / me=umh / subme=9 / psy=1 / psy_rd=1.00:0.00 / mixed_ref=1 / me_range=24 / chroma_me=1 / trellis=1 / 8x8dct=1 / cqm=0 / deadzone=21,11 / fast_pskip=0 / chroma_qp_offset=-2 / threads=22 / lookahead_threads=3 / sliced_threads=0 / nr=0 / decimate=1 / interlaced=0 / bluray_compat=0 / constrained_intra=0 / bframes=8 / b_pyramid=2 / b_adapt=2 / b_bias=0 / direct=3 / weightb=1 / open_gop=0 / weightp=2 / keyint=250 / keyint_min=23 / scenecut=40 / intra_refresh=0 / rc_lookahead=60 / rc=2pass / mbtree=1 / bitrate=4558 / ratetol=1.0 / qcomp=0.60 / qpmin=0 / qpmax=69 / qpstep=4 / cplxblur=20.0 / qblur=0.5 / vbv_maxrate=62500 / vbv_bufsize=78125 / nal_hrd=none / filler=0 / ip_ratio=1.40 / aq=1:1.00
Default : Yes
Forced : No

Audio
ID : 2
Format : AC-3
Format/Info : Audio Coding 3
Commercial name : Dolby Digital
Codec ID : A_AC3
Duration : 1 h 30 min
Bit rate mode : Constant
Bit rate : 640 kb/s
Channel(s) : 2 channels
Channel layout : L R
Sampling rate : 48.0 kHz
Frame rate : 31.250 FPS (1536 SPF)
Bit depth : 16 bits
Compression mode : Lossy
Stream size : 413 MiB (12%)
Language : English
Service kind : Complete Main
Default : Yes
Forced : No

Menu
00:00:00.000 : en:Chapter 01
00:07:30.492 : en:Chapter 02
00:19:22.536 : en:Chapter 03
00:27:04.164 : en:Chapter 04
00:37:48.850 : en:Chapter 05
00:46:51.559 : en:Chapter 06
00:54:09.997 : en:Chapter 07
01:02:29.829 : en:Chapter 08
01:12:11.327 : en:Chapter 09
01:23:12.988 : en:Chapter 10





1 个附件 售价 大小 下载 时间

Track.29.1988.720p.BluRay.x264-SPOOKS.torrent 0 金币 33.59K 329 次 3月前

#1楼
发帖时间:2019-06-13 01:59:17   |   回复数:2
liyouchai
隐世仙人♂
谢谢楼主分享资源
3月前 #2楼
911degrees
隐世仙人♂
非常感谢,谢谢分享
3月前 #3楼
游客组