conanlcg
超级版主

[更 早] [欧美] [剧情] [BD-1080P] 满洲候选人/恐怖分子 The.Manchurian.Candidate.1962.REMASTERED.1080p.BluRay.x264-SADPANDA 1

-->

帖子完整标题:满洲候选人/恐怖分子 The.Manchurian.Candidate.1962.REMASTERED.1080p.BluRay.x264-SADPANDA 12.04GB




◎译  名 满洲候选人 / 恐怖分子 / 谍影迷魂
◎片  名 The Manchurian Candidate
◎年  代 1962
◎产  地 美国
◎类  别 剧情 / 惊悚
◎语  言 英语
◎上映日期 1962-10-24
◎IMDb评分 8.0/10 from 67552 users
◎IMDb链接 http://www.imdb.com/title/tt0056218
◎豆瓣评分 7.3/10 from 1989 users
◎豆瓣链接 https://movie.douban.com/subject/1293840/
◎片  长 126 分钟
◎导  演 John Frankenheimer
◎编  剧 乔治·阿克塞尔罗德 George Axelrod / Richard Condon / 约翰·弗兰克海默 John Frankenheimer
◎主  演 Frank Sinatra
      Laurence Harvey
      Angela Lansbury
      Janet Leigh
      Henry Silva


◎标  签 美国 | 政治 | 悬疑 | 惊悚 | 1962 | 美国电影 | 黑白 | 黑色

◎简  介

  约翰·弗兰肯海默导演的一流政治惊悚片。编导将冷战时代的政治讽刺与悬疑故事作出完美的结合,气氛紧凑逼人,极具戏剧张力。
故事背景是韩战之后的美国,劳伦斯·夏威返国时被当作战争英雄,荣获国会勋章,但他同一排的弟兄和他的排长法兰克·辛纳屈都不清楚他在战场上干了什么英勇行为?辛纳屈时常梦到韩战的奇怪景象,决定调查真相,终于发现他们那一排的人原来曾被北韩军队俘虏并加以洗脑,夏威已变成苏联派到美国作政治暗杀的洗脑杀手。
剧情发展溶合了写实幻想与象征,彼此交错进行,因此映象的处理亦十分复杂,有如一列不断在变速的火车,对于能够进入情况的观众是会看得很过瘾的。

◎获奖情况

  第35届奥斯卡金像奖(1963)
  最佳女配角(提名) 安吉拉·兰斯伯瑞
  最佳剪辑(提名) 费里斯·韦伯斯特



Video
ID : 1
Format : AVC
Format/Info : Advanced Video Codec
Format profile : [email protected]
Format settings, CABAC : Yes
Format settings, ReFrames : 4 frames
Codec ID : V_MPEG4/ISO/AVC
Duration : 2h 6mn
Bit rate : 12.9 Mbps
Width : 1 904 pixels
Height : 1 080 pixels
Display aspect ratio : 16:9
Frame rate mode : Constant
Frame rate : 23.976 (24000/1001) fps
Color space : YUV
Chroma subsampling : 4:2:0
Bit depth : 8 bits
Scan type : Progressive
Bits/(Pixel*Frame) : 0.263
Stream size : 11.5 GiB (96%)
Writing library : x264 core 148 r2665 a01e339
Encoding settings : cabac=1 / ref=4 / deblock=1:-3:-3 / analyse=0x3:0x113 / me=umh / subme=8 / psy=1 / psy_rd=1.00:0.25 / mixed_ref=1 / me_range=24 / chroma_me=1 / trellis=1 / 8x8dct=1 / cqm=0 / deadzone=21,11 / fast_pskip=1 / chroma_qp_offset=-4 / threads=24 / lookahead_threads=4 / sliced_threads=0 / nr=0 / decimate=1 / interlaced=0 / bluray_compat=0 / constrained_intra=0 / bframes=3 / b_pyramid=2 / b_adapt=2 / b_bias=0 / direct=3 / weightb=1 / open_gop=0 / weightp=2 / keyint=240 / keyint_min=24 / scenecut=40 / intra_refresh=0 / rc_lookahead=50 / rc=2pass / mbtree=1 / bitrate=12947 / ratetol=1.0 / qcomp=0.60 / qpmin=0 / qpmax=69 / qpstep=4 / cplxblur=20.0 / qblur=0.5 / ip_ratio=1.40 / aq=1:0.50
Default : Yes
Forced : No

Audio
ID : 2
Format : FLAC
Format/Info : Free Lossless Audio Codec
Codec ID : A_FLAC
Duration : 2h 6mn
Bit rate mode : Variable
Bit rate : 607 Kbps
Channel(s) : 1 channel
Channel positions : Front: C
Sampling rate : 48.0 KHz
Frame rate : 11.719 fps (4096 spf)
Bit depth : 24 bits
Stream size : 552 MiB (4%)
Writing library : libFLAC 1.2.1 (UTC 2007-09-17)
Language : English
Default : Yes
Forced : No

Text #1
ID : 3
Format : UTF-8
Codec ID : S_TEXT/UTF8
Codec ID/Info : UTF-8 Plain Text
Duration : 2h 4mn
Bit rate : 74 bps
Count of elements : 1772
Stream size : 68.2 KiB (0%)
Language : English
Default : No
Forced : No

Text #2
ID : 4
Format : UTF-8
Codec ID : S_TEXT/UTF8
Codec ID/Info : UTF-8 Plain Text
Duration : 2h 5mn
Bit rate : 76 bps
Count of elements : 1857
Stream size : 70.6 KiB (0%)
Title : SDH
Language : English
Default : No
Forced : No

Menu
00:00:00.000 : en:00:00:00.000
00:06:24.593 : en:00:06:24.593
00:11:13.673 : en:00:11:13.673
00:17:43.062 : en:00:17:43.062
00:22:41.360 : en:00:22:41.360
00:26:20.078 : en:00:26:20.078
00:30:16.857 : en:00:30:16.857
00:35:12.319 : en:00:35:12.319
00:38:18.713 : en:00:38:18.713
00:48:23.734 : en:00:48:23.734
00:54:46.033 : en:00:54:46.033
00:57:47.881 : en:00:57:47.881
01:03:08.201 : en:01:03:08.201
01:15:11.674 : en:01:15:11.674
01:20:25.571 : en:01:20:25.571
01:30:03.023 : en:01:30:03.023
01:35:42.737 : en:01:35:42.737
01:40:23.226 : en:01:40:23.226
01:50:17.611 : en:01:50:17.611
01:54:01.752 : en:01:54:01.752





1 个附件 售价 大小 下载 时间

The.Manchurian.Candidate.1962.REMASTERED.1080p.BluRay.x264-SADPANDA.torrent 0 金币 61.06K 581 次 4月前

#1楼
发帖时间:2019-06-13 02:15:25   |   回复数:2
liyouchai
隐世仙人♂
谢谢楼主分享资源
4月前 #2楼
911degrees
隐世仙人♂
非常感谢,谢谢分享
4月前 #3楼
游客组