conanlcg
超级版主

[更 早] [其他] [剧情] [BD-1080P] 午夜快车 Midnight.Express.1978.1080p.BluRay.x264-CiNEFiLE 7.95GB

-->

帖子完整标题:午夜快车 Midnight.Express.1978.1080p.BluRay.x264-CiNEFiLE 7.95GB




◎译  名 午夜快车
◎片  名 Midnight Express
◎年  代 1978
◎产  地 英国 / 美国
◎类  别 剧情 / 惊悚 / 传记 / 犯罪
◎语  言 英语 / 马尔他语 / 法语
◎上映日期 1978-10-06(美国)
◎IMDb评分 7.6/10 from 65593 users
◎IMDb链接 http://www.imdb.com/title/tt0077928
◎豆瓣评分 7.7/10 from 1994 users
◎豆瓣链接 https://movie.douban.com/subject/1296827/
◎片  长 121分钟
◎导  演 艾伦·帕克 Alan Parker
◎编  剧 奥利佛·斯通 Oliver Stone
◎主  演 布拉德·戴维斯 Brad Davis
      艾琳·米拉科 Irene Miracle
      博·霍普金斯 Bo Hopkins
      保罗·博纳切利 Paolo Bonacelli
      约翰·赫特 John Hurt


◎标  签 美国 | 监狱 | AlanParker | 剧情 | 1978 | 艾伦·帕克 | 美国电影 | 英国

◎简  介

  本片根据真实事件改编
1970年,来自美国长岛中产阶级家庭的青年希斯(Brad Davis饰)与女友来到土耳其度假,临行前希斯偷携了两公斤大麻,不料登机时暴露,并因藏匿毒品被捕。希斯在被押往监狱的路上逃脱失败后又遭监狱官毒打,所幸他很快结识了两位狱友:吉米(Randy Quaid 饰)与艾力(Norbert Weisser 饰),并开始逐渐熟悉土耳其监狱中如露天市场般混乱荒诞的生活环境。
虽经父亲多方努力,但希斯仍不得不忍受四年刑期。四年后即将出狱时却正逢美土交恶,希斯不巧被改判三十年,成为了外交的牺牲品。艾力这时又刑满释放,希斯的承受力面临崩溃,最终决定加入到吉米的逃狱计划中去……

◎获奖情况

  第51届奥斯卡金像奖(1979)
  最佳影片(提名) 大卫·普特南 / Alan Marshall
  最佳导演(提名) 艾伦·帕克
  最佳男配角(提名) 约翰·赫特
  最佳改编剧本 奥利佛·斯通
  最佳剪辑(提名) 格里·汉布林
  最佳原创配乐 乔治·莫罗德

  第31届戛纳电影节(1978)
  主竞赛单元 金棕榈奖(提名) 艾伦·帕克



Video
ID : 1
Format : AVC
Format/Info : Advanced Video Codec
Format profile : [email protected]
Format settings : CABAC / 4 Ref Frames
Format settings, CABAC : Yes
Format settings, ReFrames : 4 frames
Codec ID : V_MPEG4/ISO/AVC
Duration : 2 h 0 min
Bit rate : 8 762 kb/s
Width : 1 920 pixels
Height : 1 040 pixels
Display aspect ratio : 1.85:1
Frame rate mode : Constant
Frame rate : 23.976 (24000/1001) FPS
Color space : YUV
Chroma subsampling : 4:2:0
Bit depth : 8 bits
Scan type : Progressive
Bits/(Pixel*Frame) : 0.183
Stream size : 7.25 GiB (91%)
Writing library : x264 core 68 r1179M 96e2229
Encoding settings : cabac=1 / ref=4 / deblock=1:0:0 / analyse=0x3:0x2 / me=umh / subme=7 / psy_rd=1.0:0.0 / mixed_ref=1 / me_range=16 / chroma_me=1 / trellis=1 / 8x8dct=1 / cqm=0 / deadzone=21,11 / chroma_qp_offset=-2 / threads=6 / nr=0 / decimate=1 / mbaff=0 / bframes=3 / b_pyramid=1 / b_adapt=1 / b_bias=0 / direct=1 / wpredb=1 / keyint=250 / keyint_min=25 / scenecut=40 / rc=2pass / bitrate=8762 / ratetol=1.0 / qcomp=0.60 / qpmin=10 / qpmax=51 / qpstep=4 / cplxblur=20.0 / qblur=0.5 / ip_ratio=1.40 / pb_ratio=1.30 / aq=1:1.00
Language : English
Default : Yes
Forced : No

Audio
ID : 2
Format : AC-3
Format/Info : Audio Coding 3
Codec ID : A_AC3
Duration : 2 h 0 min
Bit rate mode : Constant
Bit rate : 640 kb/s
Channel(s) : 6 channels
Channel positions : Front: L C R, Side: L R, LFE
Sampling rate : 48.0 kHz
Frame rate : 31.250 FPS (1536 SPF)
Bit depth : 16 bits
Compression mode : Lossy
Stream size : 554 MiB (7%)
Language : English
Service kind : Complete Main
Default : Yes
Forced : No

Text
ID : 3
Format : UTF-8
Codec ID : S_TEXT/UTF8
Codec ID/Info : UTF-8 Plain Text
Language : English
Default : Yes
Forced : No





1 个附件 售价 大小 下载 时间

Midnight.Express.1978.1080p.BluRay.x264-CiNEFiLE.torrent 0 金币 80.01K 672 次 4月前

#1楼
发帖时间:2019-06-13 02:23:20   |   回复数:3
liyouchai
隐世仙人♂
谢谢楼主分享资源
4月前 #2楼
911degrees
隐世仙人♂
非常感谢,谢谢分享
4月前 #3楼
kola13
一派掌门
感谢分享
4月前 #4楼
游客组