conanlcg
超级版主

[更 早] [欧美] [剧情] [BD-1080P] 哈洛与慕德/哈奥德与茂迪 Harold.And.Maude.1971.1080p.BluRay.X264-AMIABLE 6.56GB

-->

帖子完整标题:哈洛与慕德/哈奥德与茂迪 Harold.And.Maude.1971.1080p.BluRay.X264-AMIABLE 6.56GB




◎译  名 哈洛与慕德 / 哈奥德与茂迪 / 哈洛与茂德 / 哈罗德与莫德
◎片  名 Harold and Maude
◎年  代 1971
◎产  地 美国
◎类  别 剧情 / 喜剧
◎语  言 英语
◎上映日期 1971-12-20
◎IMDb评分 8.0/10 from 65291 users
◎IMDb链接 http://www.imdb.com/title/tt0067185
◎豆瓣评分 8.3/10 from 4573 users
◎豆瓣链接 https://movie.douban.com/subject/1292812/
◎片  长 91 分钟
◎导  演 Hal Ashby
◎编  剧 Colin Higgins
◎主  演 Ruth Gordon
      Bud Cort
      Vivian Pickles
      Ellen Geer
      Charles Tyner


◎标  签 美国 | 爱情 | Cult | 美国电影 | 喜剧 | 1970s | 1971 | 电影

◎简  介

  20岁的上流社会男孩哈洛(Bud Cort 巴德?库特 饰)对死亡异常迷恋,喜欢伪装自杀吓唬母亲,热衷参加葬礼,甚至购买了一辆灵车。母亲习以为常,却也不堪忍受,因此催促哈洛早日成家,成熟起来。在他人的葬礼上,哈洛认识了79岁的穆德(Ruth Gordon 露丝?高登 饰),一个与他有着相同爱好的老妇人,从此走入慕德奇妙多彩的世界。
开朗搞怪的慕德使阴郁的哈洛逐渐开朗,并最终向她展开心扉。哈洛的死亡游戏接连吓跑多个应征女孩,忍无可忍的母亲决定让他参军,他和慕德却设计摆脱了兵役困扰。两个忘年交的朋友越走越近……

Video
ID : 1
Format : AVC
Format/Info : Advanced Video Codec
Format profile : [email protected]
Format settings, CABAC : Yes
Format settings, ReFrames : 4 frames
Codec ID : V_MPEG4/ISO/AVC
Duration : 1 h 31 min
Bit rate : 9 592 kb/s
Width : 1 920 pixels
Height : 1 040 pixels
Display aspect ratio : 1.85:1
Frame rate mode : Constant
Frame rate : 23.976 (24000/1001) FPS
Color space : YUV
Chroma subsampling : 4:2:0
Bit depth : 8 bits
Scan type : Progressive
Bits/(Pixel*Frame) : 0.200
Stream size : 6.02 GiB (92%)
Writing library : x264 core 124 r2197 69a0443
Encoding settings : cabac=1 / ref=4 / deblock=1:0:0 / analyse=0x3:0x113 / me=umh / subme=8 / psy=1 / psy_rd=1.00:0.00 / mixed_ref=1 / me_range=16 / chroma_me=1 / trellis=1 / 8x8dct=1 / cqm=0 / deadzone=21,11 / fast_pskip=1 / chroma_qp_offset=-2 / threads=12 / sliced_threads=0 / nr=0 / decimate=1 / interlaced=0 / bluray_compat=0 / constrained_intra=0 / bframes=3 / b_pyramid=2 / b_adapt=2 / b_bias=0 / direct=3 / weightb=1 / open_gop=0 / weightp=2 / keyint=250 / keyint_min=25 / scenecut=40 / intra_refresh=0 / rc_lookahead=50 / rc=2pass / mbtree=1 / bitrate=9592 / ratetol=1.0 / qcomp=0.60 / qpmin=0 / qpmax=69 / qpstep=4 / cplxblur=20.0 / qblur=0.5 / ip_ratio=1.40 / aq=1:1.00
Language : English
Default : Yes
Forced : No

Audio
ID : 2
Format : AC-3
Format/Info : Audio Coding 3
Format settings, Endianness : Big
Codec ID : A_AC3
Duration : 1 h 31 min
Bit rate mode : Constant
Bit rate : 640 kb/s
Channel(s) : 6 channels
Channel(s)_Original : 1 channel
Channel positions : Front: C
Sampling rate : 48.0 kHz
Frame rate : 31.250 FPS (1536 spf)
Bit depth : 16 bits
Compression mode : Lossy
Stream size : 420 MiB (6%)
Language : English
Service kind : Complete Main
Default : Yes
Forced : No

Text
ID : 3
Format : UTF-8
Codec ID : S_TEXT/UTF8
Codec ID/Info : UTF-8 Plain Text
Language : English
Default : No
Forced : No

Menu
00:00:00.000 : en:00:00:00.000
00:05:44.344 : en:00:05:44.344
00:07:31.785 : en:00:07:31.785
00:10:13.112 : en:00:10:13.112
00:12:40.259 : en:00:12:40.259
00:15:15.998 : en:00:15:15.998
00:18:43.456 : en:00:18:43.456
00:21:17.109 : en:00:21:17.109
00:27:34.695 : en:00:27:34.695
00:30:40.964 : en:00:30:40.964
00:36:11.961 : en:00:36:11.961
00:41:36.619 : en:00:41:36.619
00:46:48.681 : en:00:46:48.681
00:48:32.535 : en:00:48:32.535
00:54:37.149 : en:00:54:37.149
00:58:52.696 : en:00:58:52.696
01:00:48.061 : en:01:00:48.061
01:06:52.008 : en:01:06:52.008
01:10:48.119 : en:01:10:48.119
01:16:17.823 : en:01:16:17.823
01:20:01.588 : en:01:20:01.588
01:22:50.340 : en:01:22:50.340
01:26:01.323 : en:01:26:01.323





1 个附件 售价 大小 下载 时间

Harold.And.Maude.1971.1080p.BluRay.X264-AMIABLE.torrent 0 金币 66.10K 455 次 12天前

#1楼
发帖时间:2019-06-13 02:33:22   |   回复数:2
911degrees
隐世仙人♂
非常感谢,谢谢分享
12天前 #2楼
liyouchai
超凡入圣№
谢谢楼主分享资源
11天前 #3楼
游客组