conanlcg
超级版主

[更 早] [欧美] [动作] [BD-1080P] 血点 Bloodsport.1988.1080p.BluRay.x264-FilmHD 6.56GB

-->

帖子完整标题:血点 Bloodsport.1988.1080p.BluRay.x264-FilmHD 6.56GB




◎译  名 血点
◎片  名 Bloodsport
◎年  代 1988
◎产  地 美国
◎类  别 动作 / 传记 / 运动
◎语  言 英语
◎上映日期 1988-02-26
◎IMDb评分 6.8/10 from 69477 users
◎IMDb链接 http://www.imdb.com/title/tt0092675
◎豆瓣评分 6.6/10 from 325 users
◎豆瓣链接 https://movie.douban.com/subject/1305760/
◎片  长 92 分钟
◎导  演 Newt Arnold
◎编  剧 Christopher Cosby / Mel Friedman / Sheldon Lettich
◎主  演 尚格·云顿 Jean-Claude Van Damme


◎标  签 动作 | 美国 | 尚格云顿 | 尚格·云顿 | 格斗 | 美国电影 | 1988 | 武术

◎简  介

  本片是根据真实事件改编而成。尚克劳范达美在本片中饰演一位功夫高手,必须在毫无规则限制的拳赛中为自己的性命放手一搏。尚克劳范达美饰演法兰克,参加一种传自香港九龙的非法秘密拳赛,并希望成为首位赢得该赛事的西方人。然而在赢得第一场胜利后,法兰克发现自己要烦恼的事不只是要如何赢得冠军,情报局探员要他退出比赛,一位美丽的记者想报导他的故事,更不用说他的对手想要他的小命!
1986年由尚格云顿首部挂牌主演的《血点》,这部在香港拍摄,预算只有150万美元的低制作成本电影,杀青后还曾因整体效果不佳而被冷冻了两年之久,直到1988年尚格云顿亲自重新剪辑并恳求制作人后方能在各地电影院放映。《血点》意外地卖座奇佳,全世界的票房收入高达3千万美元,范达美也初尝在国际影坛走红的滋味。
本片改编自空手道传奇人物Frank Dux的传奇经历。

Video
ID : 1
Format : AVC
Format/Info : Advanced Video Codec
Format profile : [email protected]
Format settings : CABAC / 4 Ref Frames
Format settings, CABAC : Yes
Format settings, ReFrames : 4 frames
Codec ID : V_MPEG4/ISO/AVC
Duration : 1 h 32 min
Bit rate : 9 415 kb/s
Width : 1 920 pixels
Height : 1 080 pixels
Display aspect ratio : 16:9
Frame rate mode : Constant
Frame rate : 23.976 (24000/1001) FPS
Color space : YUV
Chroma subsampling : 4:2:0
Bit depth : 8 bits
Scan type : Progressive
Bits/(Pixel*Frame) : 0.189
Stream size : 5.93 GiB (90%)
Writing library : x264 core 104 r1713 c276662
Encoding settings : cabac=1 / ref=4 / deblock=1:0:0 / analyse=0x3:0x133 / me=umh / subme=7 / psy=1 / psy_rd=1.00:0.00 / mixed_ref=1 / me_range=16 / chroma_me=1 / trellis=1 / 8x8dct=1 / cqm=0 / deadzone=21,11 / fast_pskip=1 / chroma_qp_offset=-2 / threads=12 / sliced_threads=0 / nr=0 / decimate=0 / interlaced=0 / constrained_intra=0 / bframes=3 / b_pyramid=2 / b_adapt=1 / b_bias=0 / direct=3 / weightb=1 / open_gop=0 / weightp=2 / keyint=240 / keyint_min=24 / scenecut=40 / intra_refresh=0 / rc_lookahead=30 / rc=2pass / mbtree=1 / bitrate=9415 / ratetol=1.0 / qcomp=0.60 / qpmin=10 / qpmax=51 / qpstep=4 / cplxblur=20.0 / qblur=0.5 / ip_ratio=1.40 / aq=1:1.00
Language : English
Default : Yes
Forced : No

Audio
ID : 2
Format : DTS
Format/Info : Digital Theater Systems
Codec ID : A_DTS
Duration : 1 h 32 min
Bit rate mode : Constant
Bit rate : 768 kb/s
Channel(s) : 6 channels
Channel(s)_Original : 2 channels
Channel positions : Front: L R
Sampling rate : 48.0 kHz
Frame rate : 93.750 FPS (512 SPF)
Bit depth : 24 bits
Compression mode : Lossy
Stream size : 507 MiB (8%)
Title : English DTS 754kbps
Language : English
Default : Yes
Forced : No

Text #1
ID : 3
Format : UTF-8
Codec ID : S_TEXT/UTF8
Codec ID/Info : UTF-8 Plain Text
Title : English
Language : English
Default : No
Forced : No

Text #2
ID : 4
Format : UTF-8
Codec ID : S_TEXT/UTF8
Codec ID/Info : UTF-8 Plain Text
Title : French
Language : French
Default : No
Forced : No

Text #3
ID : 5
Format : UTF-8
Codec ID : S_TEXT/UTF8
Codec ID/Info : UTF-8 Plain Text
Title : Spanish
Language : Spanish
Default : No
Forced : No

Menu
00:00:00.000 : en:00:00:00.000
00:03:00.639 : en:00:03:00.639
00:04:21.720 : en:00:04:21.720
00:10:35.927 : en:00:10:35.927
00:17:39.100 : en:00:17:39.100
00:20:39.196 : en:00:20:39.196
00:25:02.000 : en:00:25:02.000
00:28:04.433 : en:00:28:04.433
00:31:27.969 : en:00:31:27.969
00:35:44.642 : en:00:35:44.642
00:42:15.825 : en:00:42:15.825
00:44:16.279 : en:00:44:16.279
00:47:58.292 : en:00:47:58.292
00:52:30.522 : en:00:52:30.522
01:00:14.402 : en:01:00:14.402
01:02:42.592 : en:01:02:42.592
01:07:05.730 : en:01:07:05.730
01:09:27.246 : en:01:09:27.246
01:12:52.368 : en:01:12:52.368
01:15:17.638 : en:01:15:17.638
01:21:36.141 : en:01:21:36.141
01:25:21.366 : en:01:25:21.366
01:27:53.935 : en:01:27:53.935





1 个附件 售价 大小 下载 时间

Bloodsport.1988.1080p.BluRay.x264-FilmHD.torrent 0 金币 66.07K 567 次 4月前

#1楼
发帖时间:2019-06-13 02:43:22   |   回复数:4
911degrees
隐世仙人♂
非常感谢,谢谢分享
4月前 #2楼
yangbo83222179
一代宗师
谢谢楼主分享,支持一下
4月前 #3楼
kola13
一派掌门
感谢分享
4月前 #4楼
liyouchai
隐世仙人♂
谢谢楼主分享资源
4月前 #5楼
游客组