conanlcg
超级版主

[2011] [欧美] [喜剧] [BD-1080P] 上帝保佑美国/天佑美利坚 God.Bless.America.2011.LiMiTED.1080p.BluRay.x264-SPARKS 7.94GB

-->

帖子完整标题:上帝保佑美国/天佑美利坚 God.Bless.America.2011.LiMiTED.1080p.BluRay.x264-SPARKS 7.94GB




◎译  名 上帝保佑美国 / 天佑美利坚
◎片  名 God Bless America
◎年  代 2011
◎产  地 美国
◎类  别 喜剧 / 犯罪
◎语  言 英语
◎上映日期 2011-09-09(多伦多电影节) / 2012-05-11(美国)
◎IMDb评分 7.2/10 from 65913 users
◎IMDb链接 http://www.imdb.com/title/tt1912398
◎豆瓣评分 7.8/10 from 34290 users
◎豆瓣链接 https://movie.douban.com/subject/6768838/
◎片  长 105分钟
◎导  演 博卡·格德斯维特 Bobcat Goldthwait
◎编  剧 博卡·格德斯维特 Bobcat Goldthwait
◎主  演 乔尔·默里 Joel Murray
      塔拉·林内·巴尔 Tara Lynne Barr
      梅琳达·佩吉·汉密尔顿 Melinda Page Hamilton
      麦肯泽·布鲁克·史密斯 Mackenzie Brooke Smith
      里奇·麦克唐纳 Rich McDonald
      麦蒂·哈森 Maddie Hasson
      拉里·米勒 Larry Miller
      Dorie Barton
      特拉维斯·韦斯特 Travis Wester
      阿里斯·阿瓦拉多 Aris Alvarado
      桑德拉·维尔加拉 Sandra Vergara


◎标  签 美国 | 黑色 | 喜剧 | 犯罪 | 人性 | 暴力 | 剧情 | 2012

◎简  介

  中年男子弗兰克(乔尔·默里 Joel Murray 饰)对聒噪的世界深感麻木,他的生活如同一潭死水,每天浑噩度日。他对自私邻居的侵扰忍辱退让,对前妻再婚和女儿叛逆感到无奈,对不知廉耻的电视真人秀选手反感厌恶。终于被诊断出脑瘤和丢掉工作的现实把弗兰克彻底击垮。正当他想以自杀了结此生时,真人秀里贪得无厌的选秀女孩激发出了他潜藏已久的憎恨,他决定以自己的方式让正义得到伸张。
于是弗兰克出门杀死了他自认为该死的邻家女孩克洛伊,这一幕被另一个女孩洛克西(塔拉·林内·巴尔 Tara Lynne Barr 饰)目睹。洛克西同样厌恶着充斥弊病的社会,她主动参与到弗兰克的杀人计划。两人携带枪支走上大街,大张旗鼓的玩起杀人游戏,成为新闻追踪的焦点……

Video
ID : 1
Format : AVC
Format/Info : Advanced Video Codec
Format profile : [email protected]
Format settings, CABAC : Yes
Format settings, ReFrames : 5 frames
Codec ID : V_MPEG4/ISO/AVC
Duration : 1 h 44 min
Bit rate : 9 386 kb/s
Width : 1 920 pixels
Height : 816 pixels
Display aspect ratio : 2.35:1
Frame rate mode : Constant
Frame rate : 23.976 (24000/1001) FPS
Color space : YUV
Chroma subsampling : 4:2:0
Bit depth : 8 bits
Scan type : Progressive
Bits/(Pixel*Frame) : 0.250
Stream size : 6.68 GiB (84%)
Writing library : x264 core 125 r2200 999b753
Encoding settings : cabac=1 / ref=5 / deblock=1:0:0 / analyse=0x3:0x113 / me=umh / subme=7 / psy=1 / psy_rd=1.00:0.00 / mixed_ref=1 / me_range=16 / chroma_me=1 / trellis=1 / 8x8dct=1 / cqm=0 / deadzone=21,11 / fast_pskip=0 / chroma_qp_offset=-2 / threads=18 / lookahead_threads=3 / sliced_threads=0 / nr=0 / decimate=1 / interlaced=0 / bluray_compat=0 / constrained_intra=0 / bframes=3 / b_pyramid=2 / b_adapt=1 / b_bias=0 / direct=1 / weightb=1 / open_gop=0 / weightp=2 / keyint=250 / keyint_min=23 / scenecut=40 / intra_refresh=0 / rc_lookahead=40 / rc=2pass / mbtree=1 / bitrate=9386 / ratetol=1.0 / qcomp=0.60 / qpmin=0 / qpmax=69 / qpstep=4 / cplxblur=20.0 / qblur=0.5 / ip_ratio=1.40 / aq=1:1.00
Language : English
Default : Yes
Forced : No

Audio
ID : 2
Format : DTS
Format/Info : Digital Theater Systems
Mode : 16
Format settings, Endianness : Big
Codec ID : A_DTS
Duration : 1 h 44 min
Bit rate mode : Constant
Bit rate : 1 509 kb/s
Channel(s) : 6 channels
Channel positions : Front: L C R, Side: L R, LFE
Sampling rate : 48.0 kHz
Frame rate : 93.750 FPS (512 spf)
Bit depth : 24 bits
Compression mode : Lossy
Stream size : 1.10 GiB (14%)
Language : English
Default : Yes
Forced : No

Text
ID : 3
Format : UTF-8
Codec ID : S_TEXT/UTF8
Codec ID/Info : UTF-8 Plain Text
Language : English
Default : No
Forced : No




#1楼
发帖时间:2019-06-13 04:21:50   |   回复数:2
911degrees
隐世仙人♂
非常感谢,谢谢分享
4月前 #2楼
liyouchai
隐世仙人♂
谢谢楼主分享资源
4月前 #3楼
游客组