conanlcg
超级版主

[更 早] [欧美] [剧情] [BD-1080P] 喜剧之王 The.King.of.Comedy.1982.1080p.BluRay.X264-AMIABLE 8.74GB

-->

帖子完整标题:喜剧之王 The.King.of.Comedy.1982.1080p.BluRay.X264-AMIABLE 8.74GB




◎译  名 喜剧之王
◎片  名 The King of Comedy
◎年  代 1982
◎产  地 美国
◎类  别 剧情 / 喜剧 / 犯罪
◎语  言 英语
◎上映日期 1982-12-19
◎IMDb评分 7.8/10 from 67424 users
◎IMDb链接 http://www.imdb.com/title/tt0085794
◎豆瓣评分 8.2/10 from 4997 users
◎豆瓣链接 https://movie.douban.com/subject/1292772/
◎片  长 109 分钟
◎导  演 Martin Scorsese
◎编  剧 Paul D. Zimmerman
◎主  演 Robert De Niro
      Jerry Lewis
      Diahnne Abbott
      Sandra Bernhard
      Shelley Hack


◎标  签 美国 | 喜剧 | 1982 | 黑色幽默 | 犯罪 | 剧情 | Robert_DeNiro | Martin.Scorsese

◎简  介

  痴迷脱口秀笑话表演的鲁帕(Robert De Niro 饰)梦想自己也能站在舞台上享受观众的欢呼,借疯狂粉丝玛莎(Sandra Bernhard 饰)创造的机会,鲁帕得以和脱口秀明星杰瑞交谈,鲁帕踌躇满志的自我介绍,虽然杰瑞敷衍了事,但鲁帕仍视自己为杰瑞的好友。为了能在心爱的丽塔面前出人头地,鲁帕不惜一些代价要获得与杰瑞同台表演的机会,另一方面杰瑞被鲁帕的纠缠搞到忍无可忍,将鲁帕与并不知情的丽塔赶出家门。杰瑞的行为激怒了鲁帕,他与玛莎合作绑架杰瑞,威胁电视台播放自己的表演,鲁帕终于如愿以偿,掀起一场轩然大波……
本片获1984年英国电影学院奖最佳剧本奖,1984年伦敦影评人协会奖年度电影奖,1984年全美影评人协会奖最佳女配角奖。

◎获奖情况

  第36届戛纳电影节(1983)
  主竞赛单元 金棕榈奖(提名) 马丁·斯科塞斯



Video
ID : 1
Format : AVC
Format/Info : Advanced Video Codec
Format profile : [email protected]
Format settings, CABAC : Yes
Format settings, ReFrames : 4 frames
Codec ID : V_MPEG4/ISO/AVC
Duration : 1 h 48 min
Bit rate : 10.7 Mb/s
Width : 1 920 pixels
Height : 1 040 pixels
Display aspect ratio : 1.85:1
Frame rate mode : Constant
Frame rate : 23.976 (24000/1001) FPS
Color space : YUV
Chroma subsampling : 4:2:0
Bit depth : 8 bits
Scan type : Progressive
Bits/(Pixel*Frame) : 0.224
Stream size : 7.98 GiB (91%)
Writing library : x264 core 142 r2389 956c8d8
Encoding settings : cabac=1 / ref=4 / deblock=1:-3:-3 / analyse=0x3:0x113 / me=umh / subme=8 / psy=1 / psy_rd=1.00:0.00 / mixed_ref=1 / me_range=16 / chroma_me=1 / trellis=1 / 8x8dct=1 / cqm=0 / deadzone=21,11 / fast_pskip=1 / chroma_qp_offset=-2 / threads=12 / lookahead_threads=2 / sliced_threads=0 / nr=0 / decimate=1 / interlaced=0 / bluray_compat=0 / constrained_intra=0 / bframes=3 / b_pyramid=2 / b_adapt=2 / b_bias=0 / direct=3 / weightb=1 / open_gop=0 / weightp=2 / keyint=240 / keyint_min=24 / scenecut=40 / intra_refresh=0 / rc_lookahead=50 / rc=2pass / mbtree=1 / bitrate=10720 / ratetol=1.0 / qcomp=0.60 / qpmin=0 / qpmax=69 / qpstep=4 / cplxblur=20.0 / qblur=0.5 / ip_ratio=1.40 / aq=1:1.00
Language : English
Default : Yes
Forced : No

Audio
ID : 2
Format : DTS
Format/Info : Digital Theater Systems
Mode : 16
Format settings, Endianness : Big
Codec ID : A_DTS
Duration : 1 h 48 min
Bit rate mode : Constant
Bit rate : 768 kb/s
Channel(s) : 6 channels
Channel(s)_Original : 1 channel
Channel positions : Front: C
Sampling rate : 48.0 kHz
Frame rate : 93.750 FPS (512 spf)
Bit depth : 24 bits
Compression mode : Lossy
Stream size : 599 MiB (7%)
Language : English
Default : Yes
Forced : No

Text #1
ID : 3
Format : UTF-8
Codec ID : S_TEXT/UTF8
Codec ID/Info : UTF-8 Plain Text
Title : SDH
Language : English
Default : No
Forced : No

Text #2
ID : 4
Format : UTF-8
Codec ID : S_TEXT/UTF8
Codec ID/Info : UTF-8 Plain Text
Language : English
Default : No
Forced : No

Menu
00:00:00.000 : en:00:00:00.000
00:03:14.319 : en:00:03:14.319
00:05:47.931 : en:00:05:47.931
00:11:06.624 : en:00:11:06.624
00:13:37.191 : en:00:13:37.191
00:14:57.939 : en:00:14:57.939
00:23:38.709 : en:00:23:38.709
00:29:40.737 : en:00:29:40.737
00:32:05.590 : en:00:32:05.590
00:36:30.021 : en:00:36:30.021
00:38:20.173 : en:00:38:20.173
00:41:12.679 : en:00:41:12.679
00:44:44.140 : en:00:44:44.140
00:52:31.315 : en:00:52:31.315
01:01:18.091 : en:01:01:18.091
01:05:16.037 : en:01:05:16.037
01:09:30.625 : en:01:09:30.625
01:14:34.929 : en:01:14:34.929
01:17:00.991 : en:01:17:00.991
01:18:32.041 : en:01:18:32.041
01:21:53.742 : en:01:21:53.742
01:24:58.218 : en:01:24:58.218
01:26:29.267 : en:01:26:29.267
01:30:22.000 : en:01:30:22.000
01:32:23.288 : en:01:32:23.288
01:35:06.284 : en:01:35:06.284
01:42:39.987 : en:01:42:39.987
01:45:19.146 : en:01:45:19.146




#1楼
发帖时间:2019-06-13 04:21:50   |   回复数:4
911degrees
隐世仙人♂
非常感谢,谢谢分享
12天前 #2楼
yangbo83222179
一代宗师
谢谢楼主分享,支持一下
11天前 #3楼
马路边
小有名气
没看到种子哦
11天前 #4楼
liyouchai
超凡入圣№
谢谢楼主分享资源
11天前 #5楼
游客组