conanlcg
超级版主

[更 早] [日本] [剧情] [BD-1080P] 早梦 Lived.in.a.Dream.1974.JAPANESE.1080p.BluRay.x264.DTS-FGT 10.87GB

-->

帖子完整标题:早梦 Lived.in.a.Dream.1974.JAPANESE.1080p.BluRay.x264.DTS-FGT 10.87GB




◎译  名 早梦 / Asaki yumemishi / 源氏物语之早梦
◎片  名 あさき夢みし
◎年  代 1974
◎产  地 日本
◎类  别 剧情
◎语  言 日语
◎上映日期 1974-10-26
◎IMDb评分 6.9/10 from 49 users
◎IMDb链接 http://www.imdb.com/title/tt0210544
◎豆瓣评分 7.1/10 from 116 users
◎豆瓣链接 https://movie.douban.com/subject/1455811/
◎导  演 実相寺昭雄
◎主  演 Janet Yata
      Shin Kishida
      Minori Terada


◎标  签 日本 | 実相寺昭雄 | 日本电影 | 实相寺昭雄 | 情色 | 1970s | 电影 | 剧情

◎简  介

  十三世紀後半王朝の挽歌が貴族たちの胸を掠める時、宮廷の後宮に生きた一人の女性の愛欲、人間としてのめざめ、そして自由を求めての出家を描く。脚本は詩人の大岡信、監督は「哥」の実相寺昭雄、撮影は中堀正夫がそれぞれ担当。
  十三世紀後半、都は後嵯峨法皇院政の時代。法皇の皇子後深草天皇は、既に帝位を弟の亀山天皇にゆずり、富小路殿に仙洞御所をいとなんでいた。二十歳半ばにして世捨人に等しかったわけである。この院には四条という寵愛する一人の女房がいた。四条はある貴族の家に生まれたが、四歳の時から上皇のもとで育てられ、十代半ばになった時、自らの愛人として仙洞御所に迎え入れた。しかし四条には愛人ができる。かねてから四条を愛している霧の暁(西園寺大納言)、執拗に迫ってついには四条を我ものとする真言密教の高徳の僧阿闍梨(上皇の異腹の弟)である。四条はこれらの男たちの愛を受け、それぞれの子供を生むが、全て彼女の手から奪い取られてしまう。彼女は宮廷社会の美しいもてあそびものとしての、自らのはかない存在を自覚せざるを得なかった。ただ一人、始めは四条を恐怖させ、次第にその荒々しい情熱が彼女の心をとらえるに至ったのは阿闍梨だが、彼は流行病であっけなく死んでしまった。やがて、幼い頃から西行絵巻を好んで眺め、西行のように生きたいと願っていた四条は、自由を求めて出家した。天台、真言の貴族的仏教の世界ではなく、遊行放浪していく踊念仏の世界に対する憧れを持つ四条は、みごとな腕前の画や書、また連歌などを道中の資として、待女目井とともに諸国をめぐって歩いた。数奇を日々の糧とし、真実の愛の荒々しい爆発を抑え、風雅の、あるいはまた政治の世界に没頭している男たちから身をふりほどいて、四条は厳島、熊野、その他日本各地を歩きまわった。王朝の幻影がくずれ去った後の、武士が支配する新しい社会の中で、彼女は目井とも別れて、一人の尼絵師として闊達に生きてゆく。彼女の生んだ娘は、今の帝の娘で高名な歌人となっているらしい。しかし、四条はただ一人、今日も街道の砂埃をまきあげながら歩いている。
Video
ID : 1
Format : AVC
Format/Info : Advanced Video Codec
Format profile : [email protected]
Format settings : CABAC / 4 Ref Frames
Format settings, CABAC : Yes
Format settings, Reference frames : 4 frames
Codec ID : V_MPEG4/ISO/AVC
Duration : 1 h 59 min
Bit rate : 11.5 Mb/s
Width : 1 920 pixels
Height : 812 pixels
Display aspect ratio : 2.35:1
Frame rate mode : Constant
Frame rate : 23.976 (24000/1001) FPS
Color space : YUV
Chroma subsampling : 4:2:0
Bit depth : 8 bits
Scan type : Progressive
Bits/(Pixel*Frame) : 0.308
Stream size : 9.60 GiB (88%)
Title : Lived.in.a.Dream.1974.JAPANESE.1080p.BluRay.x264.DTS-FGT
Writing library : x264 core 148 r2795M aaa9aa8
Encoding settings : cabac=1 / ref=4 / deblock=1:-2:-2 / analyse=0x3:0x113 / me=umh / subme=9 / psy=1 / psy_rd=1.00:0.15 / mixed_ref=1 / me_range=16 / chroma_me=1 / trellis=2 / 8x8dct=1 / cqm=0 / deadzone=21,11 / fast_pskip=1 / chroma_qp_offset=-3 / threads=24 / lookahead_threads=3 / sliced_threads=0 / nr=0 / decimate=1 / interlaced=0 / bluray_compat=0 / constrained_intra=0 / bframes=3 / b_pyramid=2 / b_adapt=1 / b_bias=0 / direct=3 / weightb=1 / open_gop=0 / weightp=2 / keyint=250 / keyint_min=25 / scenecut=40 / intra_refresh=0 / rc_lookahead=50 / rc=2pass / mbtree=1 / bitrate=11500 / ratetol=1.0 / qcomp=0.60 / qpmin=0 / qpmax=69 / qpstep=4 / cplxblur=20.0 / qblur=0.5 / vbv_maxrate=31250 / vbv_bufsize=31250 / nal_hrd=none / filler=0 / ip_ratio=1.40 / aq=1:1.00
Language : Japanese
Default : Yes
Forced : No

Audio
ID : 2
Format : DTS
Format/Info : Digital Theater Systems
Codec ID : A_DTS
Duration : 1 h 59 min
Bit rate mode : Constant
Bit rate : 1 509 kb/s
Channel(s) : 1 channel
Channel layout : C
Sampling rate : 48.0 kHz
Frame rate : 93.750 FPS (512 SPF)
Bit depth : 16 bits
Compression mode : Lossy
Stream size : 1.26 GiB (12%)
Title : Lived.in.a.Dream.1974.JAPANESE.1080p.BluRay.x264.DTS-FGT
Language : Japanese
Default : Yes
Forced : No

Text
ID : 3
Format : UTF-8
Codec ID : S_TEXT/UTF8
Codec ID/Info : UTF-8 Plain Text
Duration : 1 h 58 min
Bit rate : 39 b/s
Count of elements : 807
Stream size : 33.9 KiB (0%)
Language : English
Default : Yes
Forced : No

Menu
00:00:00.000 : en:Chapter 1
00:08:33.638 : en:Chapter 2
00:20:23.806 : en:Chapter 3
00:30:47.262 : en:Chapter 4
00:38:02.906 : en:Chapter 5
00:48:29.406 : en:Chapter 6
00:58:07.567 : en:Chapter 7
01:08:50.668 : en:Chapter 8
01:20:29.158 : en:Chapter 9
01:32:40.889 : en:Chapter 10
01:38:37.370 : en:Chapter 11
01:47:24.063 : en:Chapter 12





1 个附件 售价 大小 下载 时间

Lived.in.a.Dream.1974.JAPANESE.1080p.BluRay.x264.DTS-FGT.torrent 0 金币 54.87K 966 次 6天前

#1楼
发帖时间:2019-10-10 00:02:16   |   回复数:1
911degrees
隐世仙人♂
非常感谢,谢谢分享
2天前 #2楼
游客组