conanlcg
超级版主

[2011] [其他] [剧情] [BD-1080P] 人約離婚後 Love.Is.The.Only.Answer.2011.1080p.BluRay.x264-aBD 6.55GB

-->

帖子完整标题:人約離婚後 Love.Is.The.Only.Answer.2011.1080p.BluRay.x264-aBD 6.55GB




◎译  名 人约离婚后 / Love Is The Only Answer
◎片  名 人約離婚後
◎年  代 2011
◎产  地 中国香港
◎类  别 剧情 / 爱情
◎语  言 粤语
◎上映日期 2011-07-08(中国香港)
◎IMDb评分 5.3/10 from 99 users
◎IMDb链接 http://www.imdb.com/title/tt1964887
◎豆瓣评分 6.1/10 from 13131 users
◎豆瓣链接 https://movie.douban.com/subject/6515363/
◎片  长 94分钟
◎导  演 叶念琛 Patrick Kong
◎编  剧 叶念琛 Patrick Kong
◎主  演 佘诗曼 Charmaine Sheh
      方力申 Lik-Sun Fong
      谢安琪 Kay Tse
      罗仲谦 Chung Him Law


◎标  签 叶念琛 | 香港电影 | 香港 | 爱情 | 佘诗曼 | 方力申 | 2011 | 电影

◎简  介

  阿宝(佘诗曼 饰)在与Ryan(方力申 饰)婚礼一个月前,拿到了对方的手机并得到了其中的自拍偷情视频,在二人的婚礼上,阿宝为报复丈夫,将视频当众播放并宣布即刻离婚。但离婚的两人并未割断联系,阿宝租用Ryan的铺面开店,而Ryan则不时需要前妻救场,来赶走那些粘人不放的小情人。Ryan以给前妻找男友为借口,将阿宝诓骗到换妻聚会中,并结识了世杰(罗仲谦 饰)夫妻俩,Ryan与世杰妻子曼丽寻欢,而世杰亦对阿宝动心并展开攻势,阿宝防线终被世杰击破,但他们的交往却引起Ryan醋意。经此一事,Ryan意识到自己始终在乎阿宝,试图挽回失去的爱人……
Video
ID : 1
Format : AVC
Format/Info : Advanced Video Codec
Format profile : [email protected]
Format settings : CABAC / 4 Ref Frames
Format settings, CABAC : Yes
Format settings, ReFrames : 4 frames
Muxing mode : Header stripping
Codec ID : V_MPEG4/ISO/AVC
Duration : 1 h 34 min
Bit rate : 9 326 kb/s
Width : 1 920 pixels
Height : 1 040 pixels
Display aspect ratio : 1.85:1
Frame rate mode : Constant
Frame rate : 24.000 FPS
Color space : YUV
Chroma subsampling : 4:2:0
Bit depth : 8 bits
Scan type : Progressive
Bits/(Pixel*Frame) : 0.195
Stream size : 6.00 GiB (92%)
Writing library : x264 core 119 r2106 07efeb4
Encoding settings : cabac=1 / ref=4 / deblock=1:-1:-1 / analyse=0x3:0x113 / me=umh / subme=7 / psy=1 / psy_rd=1.00:0.00 / mixed_ref=1 / me_range=16 / chroma_me=1 / trellis=1 / 8x8dct=1 / cqm=0 / deadzone=21,11 / fast_pskip=1 / chroma_qp_offset=-2 / threads=12 / sliced_threads=0 / nr=0 / decimate=1 / interlaced=0 / bluray_compat=0 / constrained_intra=0 / bframes=3 / b_pyramid=2 / b_adapt=2 / b_bias=0 / direct=3 / weightb=1 / open_gop=0 / weightp=2 / keyint=250 / keyint_min=24 / scenecut=40 / intra_refresh=0 / rc_lookahead=40 / rc=2pass / mbtree=1 / bitrate=9326 / ratetol=1.0 / qcomp=0.60 / qpmin=0 / qpmax=69 / qpstep=4 / cplxblur=20.0 / qblur=0.5 / vbv_maxrate=50000 / vbv_bufsize=50000 / nal_hrd=none / ip_ratio=1.40 / aq=1:1.00
Language : Chinese
Default : Yes
Forced : Yes

Audio
ID : 2
Format : AC-3
Format/Info : Audio Coding 3
Muxing mode : Header stripping
Codec ID : A_AC3
Duration : 1 h 34 min
Bit rate mode : Constant
Bit rate : 640 kb/s
Channel(s) : 6 channels
Channel positions : Front: L C R, Side: L R, LFE
Sampling rate : 48.0 kHz
Frame rate : 31.250 FPS (1536 SPF)
Bit depth : 16 bits
Compression mode : Lossy
Stream size : 431 MiB (6%)
Language : Chinese
Service kind : Complete Main
Default : Yes
Forced : Yes

Text
ID : 3
Format : UTF-8
Codec ID : S_TEXT/UTF8
Codec ID/Info : UTF-8 Plain Text
Language : English
Default : Yes
Forced : No





1 个附件 售价 大小 下载 时间

Love.Is.The.Only.Answer.2011.1080p.BluRay.x264-aBD.torrent 0 金币 66.00K 469 次 6天前

#1楼
发帖时间:2019-10-10 00:08:27   |   回复数:1
911degrees
隐世仙人♂
非常感谢,谢谢分享
2天前 #2楼
游客组