conanlcg
超级版主

[2019] [欧美] [喜剧] [BD-4K] 夏福特 Shaft.2019.2160p.BluRay.x264.8bit.SDR.DTS-HD.MA.TrueHD.7.1.Atmos-SWTYBLZ 39.

-->

帖子完整标题:夏福特 Shaft.2019.2160p.BluRay.x264.8bit.SDR.DTS-HD.MA.TrueHD.7.1.Atmos-SWTYBLZ 39.47GB




◎译  名 夏福特 / Shaft 2 / Son of Shaft / 夏福特之子 / 新杀戮战警(台) / 杀戮战警2 / 辣手刑警 2:勉强父子档(港) / 铁杆神探2
◎片  名 Shaft
◎年  代 2019
◎产  地 美国
◎类  别 喜剧 / 动作 / 犯罪
◎语  言 英语
◎上映日期 2019-06-14(美国)
◎IMDb评分 6.4/10 from 26729 users
◎IMDb链接 http://www.imdb.com/title/tt4463894
◎豆瓣评分 6.8/10 from 5224 users
◎豆瓣链接 https://movie.douban.com/subject/27116384/
◎片  长 111分钟
◎导  演 蒂姆·斯托瑞 Tim Story
◎编  剧 肯尼亚·巴里斯 Kenya Barris / 亚历克斯·巴诺 Alex Barnow / 欧内斯特·泰迪曼 Ernest Tidyman
◎主  演 塞缪尔·杰克逊 Samuel L. Jackson
      杰西·厄舍 Jessie Usher
      理查德·朗德特里 Richard Roundtree
      雷吉娜·赫尔 Regina Hall
      亚历山德拉·希普 Alexandra Shipp
      马特·劳里亚 Matt Lauria
      提图斯·维里沃 Titus Welliver
      马索·曼恩 Method Man
      伊萨赫·德·班克尔 Isaach De Bankolé
      阿万·乔贾 Avan Jogia
      劳伦·维勒斯 Lauren Vélez
      伊恩·卡塞尔伯里 Ian Casselberry
      西尔维娅·杰弗里斯 Sylvia Jefferies
      迈克·顿斯顿 Mike Dunston
      查尔斯·格林 Charles Green
      艾德丽安·C·摩尔 Adrienne C. Moore
      乔恩·亚瑟 Jon Arthur
      肖恩·贝克 Sean Baker
      蒂莫西·卡尔 Timothy Carr
      大卫·邓斯顿 David Dunston
      何塞·阿尔弗雷多·费尔南德斯 José Alfredo Fernandez
      安东尼·B·哈里斯 Anthony B. Harris
      德梅特里·兰德尔 Demetri Landell
      汉斯·马雷罗 Hans Marrero
      布赖希亚·马歇尔 Brayhia Marshall
      肖恩·麦克米伦 Shaun McMillan
      本杰明·韦弗 Benjamin Weaver


◎标  签 喜剧 | 动作 | 犯罪 | 美国 | 黑人 | 2019 | 黑色幽默 | 华纳

◎简  介

  杰西·厄舍加盟[杀戮战警]续作[夏福特之子](Son of Shaft,暂译),塞缪尔·杰克逊同时回归。本片由蒂姆·斯托瑞([佐州自救兄弟])执导,肯尼亚·巴里斯编剧。厄舍扮演杰克逊的儿子,他同时也是一名联邦调查局工作人员,更是网络专家。
Video
ID : 1
Format : AVC
Format/Info : Advanced Video Codec
Format profile : [email protected]
Format settings : CABAC / 5 Ref Frames
Format settings, CABAC : Yes
Format settings, Reference frames : 5 frames
Codec ID : V_MPEG4/ISO/AVC
Duration : 1 h 51 min
Bit rate : 42.0 Mb/s
Width : 3 840 pixels
Height : 1 608 pixels
Display aspect ratio : 2.40:1
Frame rate mode : Constant
Frame rate : 23.976 (24000/1001) FPS
Color space : YUV
Chroma subsampling : 4:2:0
Bit depth : 8 bits
Scan type : Progressive
Bits/(Pixel*Frame) : 0.283
Stream size : 32.7 GiB (83%)
Title : Shaft.2019.2160p.BluRay.x264.8bit.SDR.DTS-HD.MA.TrueHD.7.1.Atmos-SWTYBLZ
Writing library : x264 core 157 r2935 545de2f
Encoding settings : cabac=1 / ref=5 / deblock=1:-1:-1 / analyse=0x3:0x113 / me=umh / subme=10 / psy=1 / psy_rd=1.00:0.15 / mixed_ref=1 / me_range=48 / chroma_me=1 / trellis=2 / 8x8dct=1 / cqm=0 / deadzone=21,11 / fast_pskip=1 / chroma_qp_offset=-3 / threads=48 / lookahead_threads=4 / sliced_threads=0 / nr=0 / decimate=0 / interlaced=0 / bluray_compat=0 / constrained_intra=0 / bframes=3 / b_pyramid=2 / b_adapt=2 / b_bias=0 / direct=3 / weightb=1 / open_gop=0 / weightp=2 / keyint=250 / keyint_min=23 / scenecut=40 / intra_refresh=0 / rc_lookahead=50 / rc=crf / mbtree=1 / crf=18.0 / qcomp=0.60 / qpmin=0 / qpmax=69 / qpstep=4 / ip_ratio=1.40 / aq=1:1.00
Default : Yes
Forced : No

Audio #1
ID : 2
Format : MLP FBA 16-ch
Format/Info : Meridian Lossless Packing FBA with 16-channel presentation
Commercial name : Dolby TrueHD with Dolby Atmos
Codec ID : A_TRUEHD
Duration : 1 h 51 min
Bit rate mode : Variable
Bit rate : 3 622 kb/s
Maximum bit rate : 6 336 kb/s
Channel(s) : 8 channels
Channel layout : L R C LFE Ls Rs Lb Rb
Sampling rate : 48.0 kHz
Frame rate : 1 200.000 FPS (40 SPF)
Compression mode : Lossless
Stream size : 2.82 GiB (7%)
Title : Shaft.2019.2160p.BluRay.x264.8bit.SDR.DTS-HD.MA.TrueHD.7.1.Atmos-SWTYBLZ
Language : English
Default : Yes
Forced : No
Number of dynamic objects : 15
Bed channel count : 1 channel
Bed channel configuration : LFE

Audio #2
ID : 3
Format : DTS XLL
Format/Info : Digital Theater Systems
Commercial name : DTS-HD Master Audio
Codec ID : A_DTS
Duration : 1 h 51 min
Bit rate mode : Variable
Bit rate : 4 026 kb/s
Channel(s) : 8 channels
Channel layout : C L R LFE Lb Rb Lss Rss
Sampling rate : 48.0 kHz
Frame rate : 93.750 FPS (512 SPF)
Bit depth : 24 bits
Compression mode : Lossless
Stream size : 3.14 GiB (8%)
Title : Shaft.2019.2160p.BluRay.x264.8bit.SDR.DTS-HD.MA.TrueHD.7.1.Atmos-SWTYBLZ
Language : English
Default : No
Forced : No

Audio #3
ID : 4
Format : AC-3
Format/Info : Audio Coding 3
Commercial name : Dolby Digital
Codec ID : A_AC3
Duration : 1 h 51 min
Bit rate mode : Constant
Bit rate : 640 kb/s
Channel(s) : 6 channels
Channel layout : L R C LFE Ls Rs
Sampling rate : 48.0 kHz
Frame rate : 31.250 FPS (1536 SPF)
Bit depth : 16 bits
Compression mode : Lossy
Stream size : 510 MiB (1%)
Title : Shaft.2019.2160p.BluRay.x264.8bit.SDR.DTS-HD.MA.TrueHD.7.1.Atmos-SWTYBLZ
Language : English
Service kind : Complete Main
Default : No
Forced : No

Text #1
ID : 5
Format : UTF-8
Codec ID : S_TEXT/UTF8
Codec ID/Info : UTF-8 Plain Text
Duration : 1 h 45 min
Bit rate : 79 b/s
Count of elements : 2020
Stream size : 61.5 KiB (0%)
Title : English-SRT
Language : English
Default : Yes
Forced : No

Text #2
ID : 6
Format : PGS
Muxing mode : zlib
Codec ID : S_HDMV/PGS
Codec ID/Info : Picture based subtitle format used on BDs/HD-DVDs
Duration : 1 h 46 min
Bit rate : 49.1 kb/s
Count of elements : 4356
Stream size : 37.5 MiB (0%)
Title : English-PGS
Language : English
Default : No
Forced : No

Text #3
ID : 7
Format : PGS
Muxing mode : zlib
Codec ID : S_HDMV/PGS
Codec ID/Info : Picture based subtitle format used on BDs/HD-DVDs
Duration : 1 h 50 min
Bit rate : 37.8 kb/s
Count of elements : 3910
Stream size : 29.9 MiB (0%)
Title : French-PGS
Language : French
Default : No
Forced : No

Text #4
ID : 8
Format : PGS
Muxing mode : zlib
Codec ID : S_HDMV/PGS
Codec ID/Info : Picture based subtitle format used on BDs/HD-DVDs
Duration : 1 h 50 min
Bit rate : 42.9 kb/s
Count of elements : 3888
Stream size : 33.9 MiB (0%)
Title : Spanish-PGS
Language : Spanish
Default : No
Forced : No

Menu
00:00:00.000 : en:Chapter 01
00:08:02.774 : en:Chapter 02
00:17:38.557 : en:Chapter 03
00:27:55.924 : en:Chapter 04
00:35:34.466 : en:Chapter 05
00:41:22.438 : en:Chapter 06
00:49:58.996 : en:Chapter 07
00:59:05.208 : en:Chapter 08
01:08:15.883 : en:Chapter 09
01:17:30.563 : en:Chapter 10
01:23:12.196 : en:Chapter 11
01:33:29.270 : en:Chapter 12
01:43:14.021 : en:Chapter 13
01:46:54.742 : en:Chapter 14





1 个附件 售价 大小 下载 时间

Shaft.2019.2160p.BluRay.x264.8bit.SDR.DTS-HD.MA.TrueHD.7.1.Atmos-SWTYBLZ.torrent 0 金币 99.31K 420 次 6天前

#1楼
发帖时间:2019-10-10 01:23:10   |   回复数:1
911degrees
隐世仙人♂
非常感谢,谢谢分享
2天前 #2楼
游客组