conanlcg
超级版主

[2015] [欧美] [喜剧] [WEB-1080P] 烧烧烧 Burn.Burn.Burn.2015.1080p.NF.WEBRip.DDP2.0.x264-IKA 2.41GB

-->

帖子完整标题:烧烧烧 Burn.Burn.Burn.2015.1080p.NF.WEBRip.DDP2.0.x264-IKA 2.41GB




◎译  名 烧烧烧 / FFF / 奔·奔·奔 / 跟住老友去旅行(港)
◎片  名 Burn Burn Burn
◎年  代 2015
◎产  地 英国
◎类  别 喜剧
◎语  言 英语
◎上映日期 2015-10-15
◎IMDb评分 7.0/10 from 1471 users
◎IMDb链接 http://www.imdb.com/title/tt3627488
◎豆瓣评分 7.4/10 from 96 users
◎豆瓣链接 https://movie.douban.com/subject/26341556/
◎片  长 106分钟(英国)
◎导  演 Chanya Button
◎编  剧 Charlie Covell
◎主  演 劳拉·卡尔迈克尔 Laura Carmichael
      约瑟夫·戴浦西 Joe Dempsie
      朱利安·林希德-图特 Julian Rhind-Tutt
      珍·爱舍 Jane Asher
      杰克·法辛 Jack Farthing
      爱丽丝·洛维 Alice Lowe
      莎莉·菲利普斯 Sally Phillips
      艾莉森·斯戴曼 Alison Steadman
      奈格尔·派纳 Nigel Planer
      埃莉诺·松浦 Eleanor Matsuura
      Hannah Arterton
      Chloe Pirrie
      Matthew Kelly
      Susan Wokoma


◎标  签 英国 | 英国电影 | 黑色幽默 | 剧情 | 文艺/剧情 | 2015 | 电影 | UK

◎简  介

  《唐顿庄园》“二小姐”劳拉·卡尔迈克尔主演,朋友去世之后,Seph和Alex为了撒骨灰开启可一段公路之旅。一部讨论生命旅程的公路片,影片细节很有趣,英伦风小幽默,无处不在。双女主设定,有les元素,但是个人认为对爱情、亲情、友情,各种关系的思考所占的比重更大
Video
ID : 1
Format : AVC
Format/Info : Advanced Video Codec
Format profile : [email protected]
Format settings : CABAC / 3 Ref Frames
Format settings, CABAC : Yes
Format settings, Reference frames : 3 frames
Codec ID : V_MPEG4/ISO/AVC
Duration : 1 h 45 min
Bit rate mode : Variable
Bit rate : 3 160 kb/s
Maximum bit rate : 4 740 kb/s
Width : 1 920 pixels
Height : 1 080 pixels
Display aspect ratio : 16:9
Frame rate mode : Constant
Frame rate : 24.000 FPS
Color space : YUV
Chroma subsampling : 4:2:0
Bit depth : 8 bits
Scan type : Progressive
Bits/(Pixel*Frame) : 0.063
Stream size : 2.31 GiB (96%)
Writing library : x264 core 118
Encoding settings : cabac=1 / ref=3 / deblock=1:0:0 / analyse=0x1:0x111 / me=umh / subme=10 / psy=1 / psy_rd=1.00:0.00 / mixed_ref=1 / me_range=24 / chroma_me=1 / trellis=2 / 8x8dct=0 / cqm=0 / deadzone=21,11 / fast_pskip=1 / chroma_qp_offset=-2 / threads=8 / sliced_threads=0 / nr=0 / decimate=1 / interlaced=0 / bluray_compat=0 / constrained_intra=0 / bframes=2 / b_pyramid=0 / b_adapt=2 / b_bias=0 / direct=3 / weightb=1 / open_gop=0 / weightp=2 / keyint=48 / keyint_min=25 / scenecut=0 / intra_refresh=0 / rc_lookahead=0 / rc=2pass / mbtree=1 / bitrate=3160 / ratetol=1.0 / qcomp=0.50 / qpmin=6 / qpmax=51 / qpstep=4 / cplxblur=20.0 / qblur=0.5 / vbv_maxrate=4740 / vbv_bufsize=6320 / nal_hrd=vbr / ip_ratio=1.40 / aq=1:1.00
Default : Yes
Forced : No

Audio
ID : 2
Format : E-AC-3
Format/Info : Enhanced AC-3
Commercial name : Dolby Digital Plus
Codec ID : A_EAC3
Duration : 1 h 45 min
Bit rate mode : Constant
Bit rate : 128 kb/s
Channel(s) : 2 channels
Channel layout : L R
Sampling rate : 48.0 kHz
Frame rate : 31.250 FPS (1536 SPF)
Compression mode : Lossy
Stream size : 96.2 MiB (4%)
Language : English
Service kind : Complete Main
Default : Yes
Forced : No

Text #1
ID : 3
Format : UTF-8
Codec ID : S_TEXT/UTF8
Codec ID/Info : UTF-8 Plain Text
Duration : 1 h 40 min
Bit rate : 62 b/s
Count of elements : 1707
Stream size : 46.5 KiB (0%)
Language : English
Default : No
Forced : No

Text #2
ID : 4
Format : UTF-8
Codec ID : S_TEXT/UTF8
Codec ID/Info : UTF-8 Plain Text
Duration : 1 h 40 min
Bit rate : 58 b/s
Count of elements : 1671
Stream size : 42.8 KiB (0%)
Title : European
Language : Spanish
Default : No
Forced : No

Text #3
ID : 5
Format : UTF-8
Codec ID : S_TEXT/UTF8
Codec ID/Info : UTF-8 Plain Text
Duration : 1 h 40 min
Bit rate : 61 b/s
Count of elements : 1673
Stream size : 44.9 KiB (0%)
Language : French
Default : No
Forced : No

Text #4
ID : 6
Format : UTF-8
Codec ID : S_TEXT/UTF8
Codec ID/Info : UTF-8 Plain Text
Duration : 1 h 40 min
Bit rate : 63 b/s
Count of elements : 1671
Stream size : 46.8 KiB (0%)
Language : German
Default : No
Forced : No

Text #5
ID : 7
Format : UTF-8
Codec ID : S_TEXT/UTF8
Codec ID/Info : UTF-8 Plain Text
Duration : 1 h 40 min
Bit rate : 57 b/s
Count of elements : 1642
Stream size : 42.4 KiB (0%)
Language : Italian
Default : No
Forced : No





1 个附件 售价 大小 下载 时间

Burn.Burn.Burn.2015.1080p.NF.WEBRip.DDP2.0.x264-IKA.torrent 0 金币 24.61K 420 次 6天前

#1楼
发帖时间:2019-10-10 01:29:36   |   回复数:1
911degrees
隐世仙人♂
非常感谢,谢谢分享
2天前 #2楼
游客组