conanlcg
超级版主

[更 早] [其他] [恐怖] [BD-1080P] 地狱周末 Nightmare.Weekend.1986.1080p.BluRay.x264-HANDJOB 6.23GB

-->

帖子完整标题:地狱周末 Nightmare.Weekend.1986.1080p.BluRay.x264-HANDJOB 6.23GB




◎译  名 地狱周末
◎片  名 Nightmare Weekend
◎年  代 1986
◎产  地 英国 / 美国 / 法国
◎类  别 恐怖
◎语  言 英语
◎IMDb评分 3.0/10 from 549 users
◎IMDb链接 https://www.imdb.com/title/tt0091631
◎豆瓣评分 0/10 from 0 users
◎豆瓣链接 https://movie.douban.com/subject/3087677/
◎导  演 Henry Sala
◎主  演 Debbie Laster
      Dale Midkiff
      Debra Hunter


◎标  签 恐怖 | 美国 | 惊悚 | 嘟嘟娘 | troma

◎简  介

  一对科学家发明了一种能使任何有机或无机物质变成致命金属球的机器,却用它为非作歹,甚至拿活人做实验。他们的女儿洁西卡外出时邂逅了机车男戴尔,并与他一见钟情,殊不知戴尔的朋友们曾被其父母当作实验品使用。丧心病狂的科学家越做越离谱,最后竟用那些金属球将死者全部复活,变成了杀人不眨眼的恶魔,洁西卡和戴尔无意中成为了他们追杀的目标……此片是troma著名的恐怖伦理片,血腥的情节伴随着香艳镜头,是一部再普通不过的商业娱乐片了。片中许多精彩镜头都曾被某些电影模仿过(比如boogeyman),一些情节比如电脑会随意控制各种物品或无处不在充满杀机的金属球等片段都令人难以置信。
Video
ID : 1
Format : AVC
Format/Info : Advanced Video Codec
Format profile : [email protected]
Format settings : CABAC / 4 Ref Frames
Format settings, CABAC : Yes
Format settings, Reference frames : 4 frames
Codec ID : V_MPEG4/ISO/AVC
Duration : 1 h 26 min
Bit rate : 10.2 Mb/s
Width : 1 920 pixels
Height : 1 080 pixels
Display aspect ratio : 16:9
Frame rate mode : Constant
Frame rate : 23.976 (24000/1001) FPS
Color space : YUV
Chroma subsampling : 4:2:0
Bit depth : 8 bits
Scan type : Progressive
Bits/(Pixel*Frame) : 0.205
Stream size : 6.13 GiB (98%)
Writing library : x264 core 157 r2945 72db437
Encoding settings : cabac=1 / ref=4 / deblock=1:-3:-3 / analyse=0x3:0x133 / me=umh / subme=10 / psy=1 / psy_rd=1.00:0.00 / mixed_ref=1 / me_range=32 / chroma_me=1 / trellis=2 / 8x8dct=1 / cqm=0 / deadzone=21,11 / fast_pskip=0 / chroma_qp_offset=-2 / threads=6 / lookahead_threads=1 / sliced_threads=0 / nr=0 / decimate=0 / interlaced=0 / bluray_compat=0 / constrained_intra=0 / bframes=16 / b_pyramid=2 / b_adapt=2 / b_bias=0 / direct=3 / weightb=1 / open_gop=0 / weightp=2 / keyint=240 / keyint_min=24 / scenecut=40 / intra_refresh=0 / rc_lookahead=60 / rc=crf / mbtree=0 / crf=22.2 / qcomp=0.60 / qpmin=0 / qpmax=69 / qpstep=4 / vbv_maxrate=62500 / vbv_bufsize=78125 / crf_max=0.0 / nal_hrd=none / filler=0 / ip_ratio=1.40 / pb_ratio=1.30 / aq=2:1.00
Language : English
Default : Yes
Forced : No
Color range : Limited
Color primaries : BT.709
Transfer characteristics : BT.709
Matrix coefficients : BT.709

Audio
ID : 3
Format : AAC LC
Format/Info : Advanced Audio Codec Low Complexity
Codec ID : A_AAC-2
Duration : 1 h 26 min
Bit rate : 149 kb/s
Channel(s) : 1 channel
Channel layout : C
Sampling rate : 48.0 kHz
Frame rate : 46.875 FPS (1024 SPF)
Compression mode : Lossy
Stream size : 91.7 MiB (1%)
Language : English
Default : Yes
Forced : No

Text
ID : 2
Format : PGS
Muxing mode : zlib
Codec ID : S_HDMV/PGS
Codec ID/Info : Picture based subtitle format used on BDs/HD-DVDs
Duration : 1 h 25 min
Bit rate : 21.3 kb/s
Count of elements : 1908
Stream size : 13.1 MiB (0%)
Language : English
Default : No
Forced : No

Menu
00:00:00.000 : :Chapter 1
00:19:50.481 : :Chapter 2
00:38:35.647 : :Chapter 3
00:56:37.978 : :Chapter 4
01:14:43.104 : :Chapter 5





1 个附件 售价 大小 下载 时间

Nightmare.Weekend.1986.1080p.BluRay.x264-HANDJOB.torrent 0 金币 31.66K 371 次 9天前

#1楼
发帖时间:2019-11-09 04:16:53   |   回复数:1
911degrees
隐世仙人♂
非常感谢,谢谢分享
9天前 #2楼
游客组