conanlcg
超级版主

[2011] [其他] [WEB-1080P] 戴安娜的问 Theres.Something.Wrong.with.Aunt.Diane.2011.1080p.AMZN.WEBRip.DDP2.0.x264-

-->

帖子完整标题:戴安娜的问 Theres.Something.Wrong.with.Aunt.Diane.2011.1080p.AMZN.WEBRip.DDP2.0.x264-SiGMA 8.00GB




◎译  名 戴安娜的问
◎片  名 There's Something Wrong with Aunt Diane
◎年  代 2011
◎产  地 澳大利亚
◎语  言 英语
◎IMDb评分 6.7/10 from 3709 users
◎IMDb链接 https://www.imdb.com/title/tt2011325
◎豆瓣评分 0/10 from 0 users
◎豆瓣链接 https://movie.douban.com/subject/10539601/
◎片  长 100分钟
◎导  演 Liz Garbus

◎标  签 纪录片 | HBO | 美国 | 想看 | Documentary | 电影

◎简  介

  In July 2008, as horrified drivers swerve to avoid her, 36-year-old Diane Schuler drove for 1.7 miles the wrong way in the fast lane of traffic of the Teconic State Parkway in the Hudson Valley of New York resulting in eight deaths, including her own. An autopsy showed Diane Schuler had high levels of both alcohol and marijuana in her system when she made the fateful decision to enter the northbound Taconic heading south on a Sunday afternoon with five children in her minivan. Four of them died, including her 2-year-old daughter and three nieces as well as three men in the SUV she hit. But was alcohol really the culprit of the tragic events- or did Diane suffer a stroke or some other mysterious physical malady? That is precisely the question her husband and sister-in-law attempt to answer when they embark on a crusade to prove that Diane Schuler wasn't an alcoholic and in fact was a seemingly model mother and citizen. They hire a private investigator to uncover the real facts surrounding that day and ensuing events. But the truth can be deceptive....will they ever find out what really happened?
Video
ID : 1
Format : AVC
Format/Info : Advanced Video Codec
Format profile : [email protected]
Format settings : CABAC / 4 Ref Frames
Format settings, CABAC : Yes
Format settings, Reference frames : 4 frames
Codec ID : V_MPEG4/ISO/AVC
Duration : 1 h 40 min
Bit rate mode : Variable
Bit rate : 11.2 Mb/s
Maximum bit rate : 15.0 Mb/s
Width : 1 920 pixels
Height : 1 080 pixels
Display aspect ratio : 16:9
Frame rate mode : Constant
Frame rate : 23.976 (24000/1001) FPS
Color space : YUV
Chroma subsampling : 4:2:0
Bit depth : 8 bits
Scan type : Progressive
Bits/(Pixel*Frame) : 0.225
Stream size : 7.84 GiB (98%)
Writing library : x264 core 148 r2623 d5b2374
Encoding settings : cabac=1 / ref=4 / deblock=1:-1:-1 / analyse=0x3:0x133 / me=umh / subme=9 / psy=1 / psy_rd=1.00:0.15 / mixed_ref=1 / me_range=24 / chroma_me=1 / trellis=2 / 8x8dct=1 / cqm=0 / deadzone=21,11 / fast_pskip=1 / chroma_qp_offset=-3 / threads=34 / lookahead_threads=5 / sliced_threads=0 / nr=150 / decimate=1 / interlaced=0 / bluray_compat=0 / constrained_intra=0 / bframes=8 / b_pyramid=2 / b_adapt=2 / b_bias=0 / direct=3 / weightb=1 / open_gop=0 / weightp=2 / keyint=120 / keyint_min=61 / scenecut=0 / intra_refresh=0 / rc_lookahead=120 / rc=crf / mbtree=1 / crf=18.0 / qcomp=0.60 / qpmin=0 / qpmax=69 / qpstep=4 / vbv_maxrate=15000 / vbv_bufsize=31250 / crf_max=0.0 / nal_hrd=vbr / filler=0 / ip_ratio=1.40 / aq=3:1.00
Default : Yes
Forced : No
Color range : Limited
Color primaries : BT.709
Transfer characteristics : BT.709
Matrix coefficients : BT.709

Audio
ID : 2
Format : E-AC-3
Format/Info : Enhanced AC-3
Commercial name : Dolby Digital Plus
Codec ID : A_EAC3
Duration : 1 h 40 min
Bit rate mode : Constant
Bit rate : 224 kb/s
Channel(s) : 2 channels
Channel layout : L R
Sampling rate : 48.0 kHz
Frame rate : 31.250 FPS (1536 SPF)
Compression mode : Lossy
Stream size : 161 MiB (2%)
Language : English
Service kind : Complete Main
Default : Yes
Forced : No

Text
ID : 3
Format : UTF-8
Codec ID : S_TEXT/UTF8
Codec ID/Info : UTF-8 Plain Text
Duration : 1 h 37 min
Bit rate : 87 b/s
Count of elements : 1249
Stream size : 62.4 KiB (0%)
Language : English
Default : No
Forced : No





1 个附件 售价 大小 下载 时间

Theres.Something.Wrong.with.Aunt.Diane.2011.1080p.AMZN.WEBRip.DDP2.0.x264-SiGMA.torrent 0 金币 80.60K 98 次 9天前

#1楼
发帖时间:2019-11-09 04:47:56   |   回复数:1
911degrees
隐世仙人♂
非常感谢,谢谢分享
9天前 #2楼
游客组