coor
武林盟主

[2018] [欧美] [喜剧] [WEB-1080P] 小婊砸 Little.Bitches.2018.1080p.AMZN.WEBRip.DDP5.1.x264-ABM 3.84GB

-->

帖子完整标题:小婊砸 Little.Bitches.2018.1080p.AMZN.WEBRip.DDP5.1.x264-ABM 3.84GB




◎译  名 小婊砸
◎片  名 Little Bitches
◎年  代 2018
◎产  地 美国
◎类  别 喜剧
◎语  言 英语
◎上映日期 2018-01-23(美国)
◎IMDb评分 3.9/10 from 599 users
◎IMDb链接 https://www.imdb.com/title/tt5292624
◎豆瓣评分 0/10 from 0 users
◎豆瓣链接 https://movie.douban.com/subject/26954678/
◎片  长 86分钟
◎导  演 Nick Kreiss
◎编  剧 Nick Kreiss
◎主  演 詹妮特·麦柯迪 Jennette McCurdy
      科雷西·克莱门斯 Kiersey Clemons
      维吉尼亚·加德纳 Virginia Gardner


◎标  签 青春 | 美国 | 喜剧 | 2018 | 电影 | 一流

◎简  介

  A group of friends vow to open their college acceptance letters at the same time during the big end-of-year party.
Video
ID : 1
Format : AVC
Format/Info : Advanced Video Codec
Format profile : [email protected]
Format settings : CABAC / 4 Ref Frames
Format settings, CABAC : Yes
Format settings, Reference frames : 4 frames
Codec ID : V_MPEG4/ISO/AVC
Duration : 1 h 26 min
Bit rate mode : Variable
Bit rate : 5 696 kb/s
Maximum bit rate : 15.0 Mb/s
Width : 1 920 pixels
Height : 800 pixels
Display aspect ratio : 2.40:1
Frame rate mode : Constant
Frame rate : 23.976 (24000/1001) FPS
Color space : YUV
Chroma subsampling : 4:2:0
Bit depth : 8 bits
Scan type : Progressive
Bits/(Pixel*Frame) : 0.155
Stream size : 3.45 GiB (90%)
Language : English
Default : Yes
Forced : No
Color range : Limited
Color primaries : BT.709
Transfer characteristics : BT.709
Matrix coefficients : BT.709

Audio
ID : 2
Format : E-AC-3
Format/Info : Enhanced AC-3
Commercial name : Dolby Digital Plus
Codec ID : A_EAC3
Duration : 1 h 26 min
Bit rate mode : Constant
Bit rate : 640 kb/s
Channel(s) : 6 channels
Channel layout : L R C LFE Ls Rs
Sampling rate : 48.0 kHz
Frame rate : 31.250 FPS (1536 SPF)
Compression mode : Lossy
Stream size : 397 MiB (10%)
Language : English
Service kind : Complete Main
Default : Yes
Forced : No

Text
ID : 3
Format : UTF-8
Codec ID : S_TEXT/UTF8
Codec ID/Info : UTF-8 Plain Text
Duration : 1 h 26 min
Bit rate : 100 b/s
Count of elements : 2037
Stream size : 63.8 KiB (0%)
Language : English
Default : No
Forced : No





1 个附件 售价 大小 下载 时间

Little.Bitches.2018.1080p.AMZN.WEBRip.DDP5.1.x264-ABM.torrent 0 金币 77.30K 217 次 1月前

#1楼
发帖时间:2019-12-09 06:10:17   |   回复数:1
911degrees
隐世仙人♂
非常感谢,谢谢分享
1月前 #2楼
游客组