coor
武林盟主

[2018] [欧美] [恐怖] [WEB-1080P] 史前巨鳄遗产/普莱西德湖:传奇 Lake.Placid.Legacy.2018.1080p.AMZN.WEBRip.DDP5.1.x264-NTG 5.15GB

-->

帖子完整标题:史前巨鳄遗产/普莱西德湖:传奇 Lake.Placid.Legacy.2018.1080p.AMZN.WEBRip.DDP5.1.x264-NTG 5.15GB




◎译  名 史前巨鳄遗产 / 普莱西德湖:传奇
◎片  名 Lake Placid: Legacy
◎年  代 2018
◎产  地 美国
◎类  别 恐怖
◎语  言 英语
◎上映日期 2018-05-28(美国)
◎IMDb评分 3.5/10 from 1553 users
◎IMDb链接 https://www.imdb.com/title/tt7875948
◎豆瓣评分 3.1/10 from 442 users
◎豆瓣链接 https://movie.douban.com/subject/30162669/
◎导  演 达雷尔·鲁特 Darrell Roodt
◎主  演 凯瑟琳·巴雷尔 Katherine Barrell
      蒂姆·罗尊 Tim Rozon
      赛·班尼特 Sai Bennett
      格雷格·克列克 Greg Kriek


◎标  签 美国 | 惊悚 | 恐怖 | 怪兽 | 2018 | 烂片 | 科幻 | 剧情

◎简  介

  故事发生在首部电影的数年之后,一群年轻的探险家们深入秘境,想找出这个在地图上被抹去的地点、其隐藏在通电围栏背后的秘密。当他们深入湖中心,他们发现了一个有著废弃工厂的小岛,而这裡正有著恐怖的遗产:这个岛属于一群致命掠夺者,它们迫不及待地想要大快朵颐任何来客。
Video
ID : 1
Format : AVC
Format/Info : Advanced Video Codec
Format profile : [email protected]
Format settings : CABAC / 4 Ref Frames
Format settings, CABAC : Yes
Format settings, Reference frames : 4 frames
Codec ID : V_MPEG4/ISO/AVC
Duration : 1 h 33 min
Bit rate : 7 281 kb/s
Width : 1 920 pixels
Height : 1 040 pixels
Display aspect ratio : 1.85:1
Frame rate mode : Constant
Frame rate : 23.976 (24000/1001) FPS
Color space : YUV
Chroma subsampling : 4:2:0
Bit depth : 8 bits
Scan type : Progressive
Bits/(Pixel*Frame) : 0.152
Stream size : 4.74 GiB (92%)
Default : Yes
Forced : No
Color range : Limited
Color primaries : BT.709
Transfer characteristics : BT.709
Matrix coefficients : BT.709

Audio
ID : 2
Format : E-AC-3
Format/Info : Enhanced AC-3
Commercial name : Dolby Digital Plus
Codec ID : A_EAC3
Duration : 1 h 33 min
Bit rate mode : Constant
Bit rate : 640 kb/s
Channel(s) : 6 channels
Channel layout : L R C LFE Ls Rs
Sampling rate : 48.0 kHz
Frame rate : 31.250 FPS (1536 SPF)
Compression mode : Lossy
Stream size : 426 MiB (8%)
Language : English
Service kind : Complete Main
Default : Yes
Forced : No

Text
ID : 3
Format : UTF-8
Codec ID : S_TEXT/UTF8
Codec ID/Info : UTF-8 Plain Text
Duration : 1 h 29 min
Bit rate : 58 b/s
Count of elements : 1398
Stream size : 38.2 KiB (0%)
Title : SDH
Language : English
Default : No
Forced : No





1 个附件 售价 大小 下载 时间

Lake.Placid.Legacy.2018.1080p.AMZN.WEBRip.DDP5.1.x264-NTG.torrent 0 金币 52.08K 630 次 1月前

#1楼
发帖时间:2019-12-09 06:11:55   |   回复数:2
yangbo83222179
一代宗师
谢谢楼主分享
1月前 #2楼
911degrees
隐世仙人♂
非常感谢,谢谢分享
1月前 #3楼
游客组