coor
武林盟主

[更 早] [欧美] [惊悚] [WEB-1080P] 变色龙/忠·奸·道 Chameleon.1995.1080p.AMZN.WEBRip.DDP2.0.x264-AJP69 10.61GB

-->

帖子完整标题:变色龙/忠·奸·道 Chameleon.1995.1080p.AMZN.WEBRip.DDP2.0.x264-AJP69 10.61GB




◎译  名 变色龙 / 忠·奸·道
◎片  名 Chameleon
◎年  代 1996
◎产  地 美国
◎类  别 惊悚
◎语  言 英语
◎IMDb评分 6.2/10 from 408 users
◎IMDb链接 https://www.imdb.com/title/tt0112656
◎豆瓣评分 0/10 from 0 users
◎豆瓣链接 https://movie.douban.com/subject/3420993/
◎片  长 108 分钟
◎导  演 Michael Pavone
◎编  剧 Michael Pavone / Dave Alan Johnson
◎主  演 安东尼·拉帕格利亚 Anthony LaPaglia
      凯文·波拉克 Kevin Pollak
      梅洛拉·哈丁 Melora Hardin


◎标  签 美国 | 特工 | 复仇 | 电影 | 1996 | 犯罪 | 爱情 | 卧底

◎简  介

  威利具有“变色龙”的超强本事。所以当政府需要一个人做卧底调查黑帮军火交易时,他就成了最佳的人选。他摇身一变,接连化成了几个不同的角色:监狱里十恶不赦的犯人托尼,考·迪西公司里的审计员赛特,狼狈不堪的流浪汉等。而考·迪西正是多年前杀害他妻子的仇人!为了报仇,他故意接近公司里漂亮的赫曼小姐,却发现自己爱上了她……但强烈的复仇欲望使他没忘记自己的任务,最终他查出了考·迪西一伙贩卖武器和毒品的底细,并在一场搏斗中杀死了考·迪西,而“变色龙”的本性也让威利精神崩溃。
Video
ID : 1
Format : AVC
Format/Info : Advanced Video Codec
Format profile : [email protected]
Format settings : CABAC / 4 Ref Frames
Format settings, CABAC : Yes
Format settings, Reference frames : 4 frames
Codec ID : V_MPEG4/ISO/AVC
Duration : 1 h 47 min
Bit rate mode : Variable
Bit rate : 13.8 Mb/s
Maximum bit rate : 15.0 Mb/s
Width : 1 920 pixels
Height : 1 080 pixels
Display aspect ratio : 16:9
Frame rate mode : Constant
Frame rate : 23.976 (24000/1001) FPS
Color space : YUV
Chroma subsampling : 4:2:0
Bit depth : 8 bits
Scan type : Progressive
Bits/(Pixel*Frame) : 0.278
Stream size : 10.4 GiB (98%)
Writing library : x264 core 148 r2623 d5b2374
Encoding settings : cabac=1 / ref=4 / deblock=1:-1:-1 / analyse=0x3:0x133 / me=umh / subme=9 / psy=1 / psy_rd=1.00:0.15 / mixed_ref=1 / me_range=24 / chroma_me=1 / trellis=2 / 8x8dct=1 / cqm=0 / deadzone=21,11 / fast_pskip=1 / chroma_qp_offset=-3 / threads=34 / lookahead_threads=5 / sliced_threads=0 / nr=150 / decimate=1 / interlaced=0 / bluray_compat=0 / constrained_intra=0 / bframes=8 / b_pyramid=2 / b_adapt=2 / b_bias=0 / direct=3 / weightb=1 / open_gop=0 / weightp=2 / keyint=120 / keyint_min=61 / scenecut=0 / intra_refresh=0 / rc_lookahead=120 / rc=crf / mbtree=1 / crf=18.0 / qcomp=0.60 / qpmin=0 / qpmax=69 / qpstep=4 / vbv_maxrate=15000 / vbv_bufsize=31250 / crf_max=0.0 / nal_hrd=vbr / filler=0 / ip_ratio=1.40 / aq=3:1.00
Default : Yes
Forced : No
Color range : Limited
Color primaries : BT.709
Transfer characteristics : BT.709
Matrix coefficients : BT.709

Audio
ID : 2
Format : E-AC-3
Format/Info : Enhanced AC-3
Commercial name : Dolby Digital Plus
Codec ID : A_EAC3
Duration : 1 h 47 min
Bit rate mode : Constant
Bit rate : 224 kb/s
Channel(s) : 2 channels
Channel layout : L R
Sampling rate : 48.0 kHz
Frame rate : 31.250 FPS (1536 SPF)
Compression mode : Lossy
Stream size : 173 MiB (2%)
Language : English
Service kind : Complete Main
Default : Yes
Forced : No

Text #1
ID : 3
Format : UTF-8
Codec ID : S_TEXT/UTF8
Codec ID/Info : UTF-8 Plain Text
Duration : 1 h 43 min
Bit rate : 62 b/s
Count of elements : 1468
Stream size : 47.0 KiB (0%)
Language : English
Default : No
Forced : No

Text #2
ID : 4
Format : UTF-8
Codec ID : S_TEXT/UTF8
Codec ID/Info : UTF-8 Plain Text
Duration : 1 h 43 min
Bit rate : 62 b/s
Count of elements : 1468
Stream size : 47.0 KiB (0%)
Title : SDH
Language : English
Default : No
Forced : No





1 个附件 售价 大小 下载 时间

Chameleon.1995.1080p.AMZN.WEBRip.DDP2.0.x264-AJP69.torrent 0 金币 53.61K 231 次 1月前

#1楼
发帖时间:2019-12-09 06:25:37   |   回复数:2
yangbo83222179
一代宗师
谢谢楼主分享
1月前 #2楼
911degrees
隐世仙人♂
非常感谢,谢谢分享
1月前 #3楼
游客组