coor
一代宗师

[更 早] [欧美] [喜剧] [WEB-1080P] 无敌当家3/一家六口3 Beethovens.3rd.2000.1080p.AMZN.WEBRip.DDP5.1.x264-ABM 8.75GB

-->

帖子完整标题:无敌当家3/一家六口3 Beethovens.3rd.2000.1080p.AMZN.WEBRip.DDP5.1.x264-ABM 8.75GB




◎译  名 无敌当家3 / 一家六口3 / 我家也有贝多芬3
◎片  名 Beethoven's 3rd
◎年  代 2000
◎产  地 美国
◎类  别 喜剧 / 家庭
◎语  言 英语
◎上映日期 2000-07-25
◎IMDb评分 4.1/10 from 4988 users
◎IMDb链接 https://www.imdb.com/title/tt0206588
◎豆瓣评分 7.0/10 from 322 users
◎豆瓣链接 https://movie.douban.com/subject/1298900/
◎片  长 99 分钟
◎导  演 David M. Evans
◎编  剧 埃米 霍尔登 琼斯 (Amy Holden Jones) / Jeff Schechter / 约翰 休斯 (John Hughes)
◎主  演 Frank Gorshin


◎标  签 狗狗 | 喜剧 | 动物 | 美国 | 美国电影 | 狗 | 我家的贝多芬 | 童年回忆

◎简  介

  纽顿一家人开著旅行车展开长途探亲之旅,除了一家之主李查以外,其他的家庭成员都以为这会是一段单调无聊的假期,没想到上路没多久,出现了一名意外的旅客──贝多芬,它不但巨大,一直流口水,食量惊人,又擅长闯祸,美好的假期眼看就要演变成一场大灾难。就在贝多芬在纽顿家的地位快不保时,出现了两名恶贼,计画对纽顿一家人下手,贝多芬会如何教训这两名恶贼,保护纽顿一家人呢?
Video
ID : 1
Format : AVC
Format/Info : Advanced Video Codec
Format profile : [email protected]
Format settings : CABAC / 4 Ref Frames
Format settings, CABAC : Yes
Format settings, Reference frames : 4 frames
Codec ID : V_MPEG4/ISO/AVC
Duration : 1 h 38 min
Bit rate mode : Variable
Bit rate : 12.1 Mb/s
Maximum bit rate : 15.0 Mb/s
Width : 1 920 pixels
Height : 1 080 pixels
Display aspect ratio : 16:9
Frame rate mode : Constant
Frame rate : 23.976 (24000/1001) FPS
Color space : YUV
Chroma subsampling : 4:2:0
Bit depth : 8 bits
Scan type : Progressive
Bits/(Pixel*Frame) : 0.244
Stream size : 8.31 GiB (95%)
Default : Yes
Forced : No
Color range : Limited
Color primaries : BT.709
Transfer characteristics : BT.709
Matrix coefficients : BT.709

Audio
ID : 2
Format : E-AC-3
Format/Info : Enhanced AC-3
Commercial name : Dolby Digital Plus
Codec ID : A_EAC3
Duration : 1 h 38 min
Bit rate mode : Constant
Bit rate : 640 kb/s
Channel(s) : 6 channels
Channel layout : L R C LFE Ls Rs
Sampling rate : 48.0 kHz
Frame rate : 31.250 FPS (1536 SPF)
Compression mode : Lossy
Delay relative to video : 25 ms
Stream size : 450 MiB (5%)
Language : English
Service kind : Complete Main
Default : Yes
Forced : No

Text
ID : 3
Format : UTF-8
Codec ID : S_TEXT/UTF8
Codec ID/Info : UTF-8 Plain Text
Duration : 1 h 34 min
Bit rate : 72 b/s
Count of elements : 1299
Stream size : 49.8 KiB (0%)
Language : English
Default : No
Forced : No





1 个附件 售价 大小 下载 时间

Beethovens.3rd.2000.1080p.AMZN.WEBRip.DDP5.1.x264-ABM.torrent 0 金币 88.07K 385 次 9月前

#1楼
发帖时间:2019-12-09 06:29:51   |   回复数:1
911degrees
隐世仙人♂
非常感谢,谢谢分享
9月前 #2楼
游客组