coor
一代宗师

[2018] [欧美] [剧情] [WEB-1080P] 一切过后 After.Everything.2018.1080p.AMZN.WEBRip.DDP5.1.x264-TOMMY 5.91GB

-->

帖子完整标题:一切过后 After.Everything.2018.1080p.AMZN.WEBRip.DDP5.1.x264-TOMMY 5.91GB




◎译  名 一切过后 / Shotgun / 生命中的美好爱恋(台)
◎片  名 After Everything
◎年  代 2018
◎产  地 美国
◎类  别 剧情 / 喜剧
◎语  言 英语
◎上映日期 2018-03-09(SXSW电影节) / 2018-04-27(Newport Beach International Film Festival) / 2018-05-05(Chicago Critics Film Festival) / 2018-10-12(美国) / 2018-10-25(新加坡) / 2018-12-06(葡萄牙)
◎IMDb评分 6.4/10 from 764 users
◎IMDb链接 https://www.imdb.com/title/tt6688022
◎豆瓣评分 6.2/10 from 168 users
◎豆瓣链接 https://movie.douban.com/subject/27012775/
◎片  长 95分钟
◎导  演 汉娜·马克斯 Hannah Marks / Joey Power
◎编  剧 汉娜·马克斯 Hannah Marks / Joey Power
◎主  演 麦卡·梦露 Maika Monroe
      杰瑞米·艾伦·怀特 Jeremy Allen White
      玛丽莎·托梅 Marisa Tomei
      吉娜·格申 Gina Gershon
      迪恩·文特斯 Dean Winters
      萨莎·莱恩 Sasha Lane
      乔·基瑞 Joe Keery
      森德希·拉玛莫西 Sendhil Ramamurthy
      奥莉维亚·卢卡尔迪 Olivia Luccardi
      凯莉·索恩 Callie Thorne
      莱亚·吉斯特德 Rya Kihlstedt
      比尔·萨奇 Bill Sage
      彼得·瓦克 Peter Vack
      Marlyne Barrett
      埃里克·詹森 Erik Jensen
      克里斯蒂娜·谢勒 Christina Scherer
      伊维特麦奎因费伊 Faye Yvette McQueen
      Karl Jacob
      Eric Berryman
      Adrianne Frost
      罗丝玛丽·霍华德 Rosemary Howard


◎标  签 美国 | 爱情 | 2018 | 独立 | 美国电影 | 癌症 | 剧情 | 纽约

◎简  介

  埃利奥特(杰瑞米·阿伦·怀特 Jeremy Allen White 饰)是一位年轻而又富有活力的纽约客,在人生的头23年里,埃利奥特没有遇到过什么大的挫折,一直都过着开心快乐的自由生活。一次偶然中,他邂逅了名为米亚(麦卡·梦露 Maika Monroe 饰)的女子,两人之间碰撞出了激情的火花。
  某日,埃利奥特被医生诊断出患上了恶性肿瘤,命不久矣,这将埃利奥特一下子从天堂打入了地狱之中。幸运的是,在痛苦的治疗过程之中,善良温柔的米亚一直坚定的陪伴和安慰着他,带给了他和病魔抗争的信心及力量。渐渐的,埃利奥特学会了如何和自己的病情共存,可与此同时,他和米亚之间的感情却出现了偏差。
Video
ID : 1
Format : AVC
Format/Info : Advanced Video Codec
Format profile : [email protected]
Format settings : CABAC / 4 Ref Frames
Format settings, CABAC : Yes
Format settings, Reference frames : 4 frames
Codec ID : V_MPEG4/ISO/AVC
Duration : 1 h 33 min
Bit rate mode : Constant
Bit rate : 8 405 kb/s
Nominal bit rate : 10 000 kb/s
Width : 1 920 pixels
Height : 800 pixels
Display aspect ratio : 2.40:1
Frame rate mode : Constant
Frame rate : 23.976 (24000/1001) FPS
Color space : YUV
Chroma subsampling : 4:2:0
Bit depth : 8 bits
Scan type : Progressive
Bits/(Pixel*Frame) : 0.228
Stream size : 5.49 GiB (93%)
Default : Yes
Forced : No
Color range : Limited
Color primaries : BT.709
Transfer characteristics : BT.709
Matrix coefficients : BT.709

Audio
ID : 2
Format : E-AC-3
Format/Info : Enhanced AC-3
Commercial name : Dolby Digital Plus
Codec ID : A_EAC3
Duration : 1 h 33 min
Bit rate mode : Constant
Bit rate : 640 kb/s
Channel(s) : 6 channels
Channel layout : L R C LFE Ls Rs
Sampling rate : 48.0 kHz
Frame rate : 31.250 FPS (1536 SPF)
Compression mode : Lossy
Stream size : 428 MiB (7%)
Title : English
Language : English
Service kind : Complete Main
Default : Yes
Forced : No

Text
ID : 3
Format : UTF-8
Codec ID : S_TEXT/UTF8
Codec ID/Info : UTF-8 Plain Text
Duration : 1 h 32 min
Bit rate : 73 b/s
Count of elements : 1683
Stream size : 50.0 KiB (0%)
Title : English [SDH]
Language : English
Default : No
Forced : No





1 个附件 售价 大小 下载 时间

After.Everything.2018.1080p.AMZN.WEBRip.DDP5.1.x264-TOMMY.torrent 0 金币 30.12K 329 次 9月前

#1楼
发帖时间:2019-12-09 06:36:51   |   回复数:1
911degrees
隐世仙人♂
非常感谢,谢谢分享
9月前 #2楼
游客组