coor
武林盟主

[2013] [其他] [剧情] [WEB-1080P] 黑暗之后 After.Darkness.2018.1080p.AMZN.WEBRip.DDP5.1.x264-NTG 4.89GB

-->

帖子完整标题:黑暗之后 After.Darkness.2018.1080p.AMZN.WEBRip.DDP5.1.x264-NTG 4.89GB




◎译  名 黑暗之后
◎片  名 After Darkness
◎年  代 2013
◎产  地 美国 / 墨西哥
◎类  别 剧情 / 科幻 / 家庭
◎语  言 英语
◎IMDb评分 3.4/10 from 428 users
◎IMDb链接 https://www.imdb.com/title/tt2728784
◎豆瓣评分 0/10 from 0 users
◎豆瓣链接 https://movie.douban.com/subject/25788776/
◎片  长 98分钟
◎导  演 Batan Silva
◎编  剧 Fernando Diez Barroso
◎主  演 凯拉·塞吉维克 Kyra Sedgwick
      约翰·帕特里克·阿梅多利 John Patrick Amedori
      瓦莱瑞·卡瑞 Valorie Curry
      蒂姆·达利 Tim Daly
      萨姆·戴利 Sam Daly
      Natalia Dyer
      罗伯托·阿奎尔 Roberto Aguire
      Jeremy Child


◎简  介

  As the SUN burns out, an American family gathers at the end of the world, their hopes for rescue slowly crumbling as they also confront long lasting divides amongst each other.
Video
ID : 1
Format : AVC
Format/Info : Advanced Video Codec
Format profile : [email protected]
Format settings : CABAC / 4 Ref Frames
Format settings, CABAC : Yes
Format settings, Reference frames : 4 frames
Codec ID : V_MPEG4/ISO/AVC
Duration : 1 h 35 min
Bit rate : 6 710 kb/s
Width : 1 920 pixels
Height : 1 040 pixels
Display aspect ratio : 1.85:1
Frame rate mode : Constant
Frame rate : 23.976 (24000/1001) FPS
Color space : YUV
Chroma subsampling : 4:2:0
Bit depth : 8 bits
Scan type : Progressive
Bits/(Pixel*Frame) : 0.140
Stream size : 4.47 GiB (91%)
Default : Yes
Forced : No
Color range : Limited
Color primaries : BT.709
Transfer characteristics : BT.709
Matrix coefficients : BT.709

Audio
ID : 2
Format : E-AC-3
Format/Info : Enhanced AC-3
Commercial name : Dolby Digital Plus
Codec ID : A_EAC3
Duration : 1 h 35 min
Bit rate mode : Constant
Bit rate : 640 kb/s
Channel(s) : 6 channels
Channel layout : L R C LFE Ls Rs
Sampling rate : 48.0 kHz
Frame rate : 31.250 FPS (1536 SPF)
Compression mode : Lossy
Stream size : 436 MiB (9%)
Language : English
Service kind : Complete Main
Default : Yes
Forced : No

Text
ID : 3
Format : UTF-8
Codec ID : S_TEXT/UTF8
Codec ID/Info : UTF-8 Plain Text
Duration : 1 h 32 min
Bit rate : 34 b/s
Count of elements : 965
Stream size : 23.4 KiB (0%)
Title : SDH
Language : English
Default : No
Forced : No





1 个附件 售价 大小 下载 时间

After.Darkness.2018.1080p.AMZN.WEBRip.DDP5.1.x264-NTG.torrent 0 金币 98.42K 217 次 1月前

#1楼
发帖时间:2019-12-09 06:38:23   |   回复数:1
911degrees
隐世仙人♂
非常感谢,谢谢分享
1月前 #2楼
游客组