coor
武林盟主

[2018] [欧美] [惊悚] [WEB-1080P] 顺风车/共乘 Rideshare.2018.1080p.AMZN.WEBRip.DDP5.1.x264-NTG 3.73GB

-->

帖子完整标题:顺风车/共乘 Rideshare.2018.1080p.AMZN.WEBRip.DDP5.1.x264-NTG 3.73GB




◎译  名 顺风车 / 共乘
◎片  名 Rideshare
◎年  代 2018
◎产  地 美国
◎类  别 惊悚
◎语  言 英语
◎上映日期 2018-04-13(美国)
◎IMDb评分 5.2/10 from 736 users
◎IMDb链接 http://www.imdb.com/title/tt6499694
◎豆瓣评分 0/10 from 0 users
◎豆瓣链接 https://movie.douban.com/subject/30196068/
◎片  长 99分钟
◎导  演 Tremain Hayhoe
◎编  剧 Tremain Hayhoe
◎主  演 Bradley Laborman
      赛德·瓦尔德 Syd Wilder
      Curtis McGann
      Caitlin O'Connor
      Rucka Rucka Ali
      Ilana Cohn
      Joshua Lee Young
      Madeleine Wade
      Nickey Huntsman
      Elisabeth Steen-Nokleberg


◎简  介

  Hitch, the most popular Rideshare app, has created safe rides for millions. At least, that's what they want you to think. It was only a matter of time before the story went public. The story of that one night. That one, horrific night.
Video
ID : 1
Format : AVC
Format/Info : Advanced Video Codec
Format profile : [email protected]
Format settings : CABAC / 4 Ref Frames
Format settings, CABAC : Yes
Format settings, Reference frames : 4 frames
Codec ID : V_MPEG4/ISO/AVC
Duration : 1 h 42 min
Bit rate mode : Variable
Bit rate : 4 583 kb/s
Maximum bit rate : 15.0 Mb/s
Width : 1 920 pixels
Height : 816 pixels
Display aspect ratio : 2.35:1
Frame rate mode : Constant
Frame rate : 23.976 (24000/1001) FPS
Color space : YUV
Chroma subsampling : 4:2:0
Bit depth : 8 bits
Scan type : Progressive
Bits/(Pixel*Frame) : 0.122
Stream size : 3.27 GiB (88%)
Default : Yes
Forced : No
Color range : Limited
Color primaries : BT.709
Transfer characteristics : BT.709
Matrix coefficients : BT.709

Audio
ID : 2
Format : E-AC-3
Format/Info : Enhanced AC-3
Commercial name : Dolby Digital Plus
Codec ID : A_EAC3
Duration : 1 h 42 min
Bit rate mode : Constant
Bit rate : 640 kb/s
Channel(s) : 6 channels
Channel layout : L R C LFE Ls Rs
Sampling rate : 48.0 kHz
Frame rate : 31.250 FPS (1536 SPF)
Compression mode : Lossy
Stream size : 468 MiB (12%)
Language : English
Service kind : Complete Main
Default : Yes
Forced : No

Text #1
ID : 3
Format : UTF-8
Codec ID : S_TEXT/UTF8
Codec ID/Info : UTF-8 Plain Text
Duration : 1 h 41 min
Bit rate : 55 b/s
Count of elements : 1749
Stream size : 41.6 KiB (0%)
Language : English
Default : No
Forced : No

Text #2
ID : 4
Format : UTF-8
Codec ID : S_TEXT/UTF8
Codec ID/Info : UTF-8 Plain Text
Duration : 1 h 41 min
Bit rate : 70 b/s
Count of elements : 2046
Stream size : 52.9 KiB (0%)
Title : SDH
Language : English
Default : No
Forced : No





1 个附件 售价 大小 下载 时间

Rideshare.2018.1080p.AMZN.WEBRip.DDP5.1.x264-NTG.torrent 0 金币 75.11K 399 次 1月前

#1楼
发帖时间:2019-12-09 07:25:51   |   回复数:1
911degrees
隐世仙人♂
非常感谢,谢谢分享
1月前 #2楼
游客组