coor
一代宗师

[2013] [欧美] [惊悚] [WEB-1080P] 荒岭录像/关键录影带 The.Levenger.Tapes.2013.1080p.AMZN.WEBRip.DDP5.1.x264-NTG 7.39GB

-->

帖子完整标题:荒岭录像/关键录影带 The.Levenger.Tapes.2013.1080p.AMZN.WEBRip.DDP5.1.x264-NTG 7.39GB




◎译  名 荒岭录像 / 关键录影带(台)
◎片  名 The Levenger Tapes
◎年  代 2013
◎产  地 美国
◎类  别 惊悚 / 恐怖
◎语  言 英语
◎上映日期 2013-09-01(美国)
◎IMDb评分 4.3/10 from 617 users
◎IMDb链接 https://www.imdb.com/title/tt1644669
◎豆瓣评分 0/10 from 0 users
◎豆瓣链接 https://movie.douban.com/subject/5152859/
◎导  演 Mark Edwin Robinson
◎编  剧 Mark Edwin Robinson
◎主  演 乔安娜·布拉迪 Johanna Braddy
      莉莉·米罗基尼克 Lili Mirojnick
      Morgan Krantz
      克里斯·马尔基 Chris Mulkey
      Aaron Jennings Hartnell
      Maria Olsen
      Jeff Pride
      John Rosenfeld
      Camden Singer
      汤姆·维图 Tom Virtue


◎标  签 恐怖 | 惊悚 | 伪纪录片 | 血腥 | 美式恐怖 | 美国电影 | 灵异 | 求字幕

◎简  介

  三个大学生到山中小屋度假,却从此失去了联系,警方根据他们遗留在溪边的摄影机,转拷成一卷关键录影带,试图从影像寻找线索进而找寻三人的下落。画面显示大学生走到荒山野岭后,发现了一件8岁女孩沾着血迹的洋装,而后竟然出现失踪女童的影像,还拍到了被烧焦的头发,还有更多令人不寒而慄的影像,单纯的失踪人口桉件瞬间发展成为连环谋杀桉…警方马不停蹄的试图从影像中拼凑出线索,希望还有机会能救出他们…
Video
ID : 1
Format : AVC
Format/Info : Advanced Video Codec
Format profile : [email protected]
Format settings : CABAC / 4 Ref Frames
Format settings, CABAC : Yes
Format settings, Reference frames : 4 frames
Codec ID : V_MPEG4/ISO/AVC
Duration : 1 h 26 min
Bit rate mode : Variable
Bit rate : 11.5 Mb/s
Maximum bit rate : 15.0 Mb/s
Width : 1 920 pixels
Height : 1 080 pixels
Display aspect ratio : 16:9
Frame rate mode : Constant
Frame rate : 23.976 (24000/1001) FPS
Color space : YUV
Chroma subsampling : 4:2:0
Bit depth : 8 bits
Scan type : Progressive
Bits/(Pixel*Frame) : 0.232
Stream size : 7.00 GiB (95%)
Default : Yes
Forced : No
Color range : Limited
Color primaries : BT.709
Transfer characteristics : BT.709
Matrix coefficients : BT.709

Audio
ID : 2
Format : E-AC-3
Format/Info : Enhanced AC-3
Commercial name : Dolby Digital Plus
Codec ID : A_EAC3
Duration : 1 h 26 min
Bit rate mode : Constant
Bit rate : 640 kb/s
Channel(s) : 6 channels
Channel layout : L R C LFE Ls Rs
Sampling rate : 48.0 kHz
Frame rate : 31.250 FPS (1536 SPF)
Compression mode : Lossy
Stream size : 398 MiB (5%)
Language : English
Service kind : Complete Main
Default : Yes
Forced : No

Text
ID : 3
Format : UTF-8
Codec ID : S_TEXT/UTF8
Codec ID/Info : UTF-8 Plain Text
Duration : 1 h 22 min
Bit rate : 66 b/s
Count of elements : 1475
Stream size : 40.6 KiB (0%)
Title : SDH
Language : English
Default : No
Forced : No





1 个附件 售价 大小 下载 时间

The.Levenger.Tapes.2013.1080p.AMZN.WEBRip.DDP5.1.x264-NTG.torrent 0 金币 74.48K 518 次 9月前

#1楼
发帖时间:2019-12-09 09:26:35   |   回复数:1
911degrees
隐世仙人♂
非常感谢,谢谢分享
9月前 #2楼
游客组