coor
武林盟主

[2015] [欧美] [恐怖] [WEB-1080P] 过去的房子 The.Last.House.2015.1080p.AMZN.WEBRip.DDP2.0.x264-NTG 4.39GB

-->

帖子完整标题:过去的房子 The.Last.House.2015.1080p.AMZN.WEBRip.DDP2.0.x264-NTG 4.39GB




◎译  名 过去的房子
◎片  名 The Last House
◎年  代 2015
◎产  地 美国
◎类  别 恐怖
◎语  言 英语
◎上映日期 2015
◎IMDb评分 2.5/10 from 104 users
◎IMDb链接 https://www.imdb.com/title/tt4591226
◎豆瓣评分 0/10 from 0 users
◎豆瓣链接 https://movie.douban.com/subject/26647320/
◎片  长 91分钟
◎导  演 Sean Cain

◎简  介

  暂无相关剧情介绍
Video
ID : 1
Format : AVC
Format/Info : Advanced Video Codec
Format profile : [email protected]
Format settings : CABAC / 4 Ref Frames
Format settings, CABAC : Yes
Format settings, Reference frames : 4 frames
Codec ID : V_MPEG4/ISO/AVC
Duration : 1 h 28 min
Bit rate : 6 854 kb/s
Width : 1 920 pixels
Height : 1 080 pixels
Display aspect ratio : 16:9
Frame rate mode : Constant
Frame rate : 23.976 (24000/1001) FPS
Color space : YUV
Chroma subsampling : 4:2:0
Bit depth : 8 bits
Scan type : Progressive
Bits/(Pixel*Frame) : 0.138
Stream size : 4.25 GiB (97%)
Default : Yes
Forced : No
Color range : Limited
Color primaries : BT.709
Transfer characteristics : BT.709
Matrix coefficients : BT.709

Audio
ID : 2
Format : E-AC-3
Format/Info : Enhanced AC-3
Commercial name : Dolby Digital Plus
Codec ID : A_EAC3
Duration : 1 h 28 min
Bit rate mode : Constant
Bit rate : 224 kb/s
Channel(s) : 2 channels
Channel layout : L R
Sampling rate : 48.0 kHz
Frame rate : 31.250 FPS (1536 SPF)
Compression mode : Lossy
Stream size : 142 MiB (3%)
Language : English
Service kind : Complete Main
Default : Yes
Forced : No

Text
ID : 3
Format : UTF-8
Codec ID : S_TEXT/UTF8
Codec ID/Info : UTF-8 Plain Text
Duration : 1 h 28 min
Bit rate : 52 b/s
Count of elements : 1311
Stream size : 34.3 KiB (0%)
Title : SDH
Language : English
Default : No
Forced : No





1 个附件 售价 大小 下载 时间

The.Last.House.2015.1080p.AMZN.WEBRip.DDP2.0.x264-NTG.torrent 0 金币 88.28K 378 次 1月前

#1楼
发帖时间:2019-12-09 09:29:39   |   回复数:2
911degrees
隐世仙人♂
非常感谢,谢谢分享
1月前 #2楼
ztwbj
武林高手
2.5分?
1月前 #3楼
游客组