coor
武林盟主

[2015] [欧美] [剧情] [WEB-1080P] 有处为家 A.Country.Called.Home.2015.1080p.NF.WEBRip.DD5.1.x264-QOQ 2.26GB

-->

帖子完整标题:有处为家 A.Country.Called.Home.2015.1080p.NF.WEBRip.DD5.1.x264-QOQ 2.26GB




◎译  名 有处为家
◎片  名 A Country Called Home
◎年  代 2015
◎产  地 美国
◎类  别 剧情
◎语  言 英语
◎上映日期 2015-06-13
◎IMDb评分 5.9/10 from 935 users
◎IMDb链接 https://www.imdb.com/title/tt3953626
◎豆瓣评分 0/10 from 0 users
◎豆瓣链接 https://movie.douban.com/subject/26675542/
◎片  长 90分钟
◎导  演 Anna Axster
◎编  剧 Anna Axster / Jim Beggarly
◎主  演 瑞恩·宾汉姆 Ryan Bingham
      麦肯兹·戴维斯 Mackenzie Davis
      乔什·赫尔曼 Josh Helman
      伊莫琴·普茨 Imogen Poots


◎标  签 温情 | 剧情 | 美国 | 家庭 | 美国电影 | 独立 | 2015 | 救赎

◎简  介

  A COUNTRY CALLED HOME is a compelling coming of age story with universal appeal because it deals with trials and trepidations that most people experience in one way or another, no matter who they are or where they are from. The story incorporates the views of people from all walks of life; different generations, different places, and different socio-economic backdrops.
  After rudderless 26 year old Ellie learns that her estranged, alcoholic father has died, her world is disrupted and she begins a journey that takes her to small-town Texas, where she finds direction, family, and friendship in this most unexpected place.
Video
ID : 1
Format : AVC
Format/Info : Advanced Video Codec
Format profile : [email protected]
Format settings : CABAC / 3 Ref Frames
Format settings, CABAC : Yes
Format settings, Reference frames : 3 frames
Codec ID : V_MPEG4/ISO/AVC
Duration : 1 h 32 min
Bit rate mode : Variable
Bit rate : 3 160 kb/s
Maximum bit rate : 4 740 kb/s
Width : 1 920 pixels
Height : 1 080 pixels
Display aspect ratio : 16:9
Frame rate mode : Constant
Frame rate : 23.976 (24000/1001) FPS
Color space : YUV
Chroma subsampling : 4:2:0
Bit depth : 8 bits
Scan type : Progressive
Bits/(Pixel*Frame) : 0.064
Stream size : 2.01 GiB (89%)
Writing library : x264 core 118
Encoding settings : cabac=1 / ref=3 / deblock=1:0:0 / analyse=0x1:0x111 / me=umh / subme=10 / psy=1 / psy_rd=1.00:0.00 / mixed_ref=1 / me_range=24 / chroma_me=1 / trellis=2 / 8x8dct=0 / cqm=0 / deadzone=21,11 / fast_pskip=1 / chroma_qp_offset=-2 / threads=6 / sliced_threads=0 / nr=0 / decimate=1 / interlaced=0 / bluray_compat=0 / constrained_intra=0 / bframes=2 / b_pyramid=0 / b_adapt=2 / b_bias=0 / direct=3 / weightb=1 / open_gop=0 / weightp=2 / keyint=48 / keyint_min=25 / scenecut=0 / intra_refresh=0 / rc_lookahead=0 / rc=2pass / mbtree=1 / bitrate=3160 / ratetol=1.0 / qcomp=0.50 / qpmin=6 / qpmax=51 / qpstep=4 / cplxblur=20.0 / qblur=0.5 / vbv_maxrate=4740 / vbv_bufsize=6320 / nal_hrd=vbr / ip_ratio=1.40 / aq=1:1.00
Default : Yes
Forced : No

Audio
ID : 2
Format : AC-3
Format/Info : Audio Coding 3
Commercial name : Dolby Digital
Codec ID : A_AC3
Duration : 1 h 32 min
Bit rate mode : Constant
Bit rate : 384 kb/s
Channel(s) : 6 channels
Channel layout : L R C LFE Ls Rs
Sampling rate : 48.0 kHz
Frame rate : 31.250 FPS (1536 SPF)
Bit depth : 16 bits
Compression mode : Lossy
Stream size : 254 MiB (11%)
Language : English
Service kind : Complete Main
Default : Yes
Forced : No

Text
ID : 3
Format : UTF-8
Codec ID : S_TEXT/UTF8
Codec ID/Info : UTF-8 Plain Text
Duration : 1 h 32 min
Bit rate : 57 b/s
Count of elements : 2118
Stream size : 39.1 KiB (0%)
Title : SDH
Language : English
Default : No
Forced : No





1 个附件 售价 大小 下载 时间

A.Country.Called.Home.2015.1080p.NF.WEBRip.DD5.1.x264-QOQ.torrent 0 金币 45.67K 266 次 1月前

#1楼
发帖时间:2019-12-09 10:02:34   |   回复数:1
911degrees
隐世仙人♂
非常感谢,谢谢分享
1月前 #2楼
游客组