coor
武林盟主

[2018] [欧美] [其他] [WEB-1080P] 狗崽队 Pawparazzi.2018.1080p.AMZN.WEBRip.DDP5.1.x264-CM 6.45GB

-->

帖子完整标题:狗崽队 Pawparazzi.2018.1080p.AMZN.WEBRip.DDP5.1.x264-CM 6.45GB




◎译  名 狗崽队 / Pawparazzi
◎片  名 PupParazzi
◎年  代 2018
◎产  地 美国
◎类  别 家庭
◎语  言 英语
◎上映日期 2018-06-01(美国)
◎IMDb评分 4.3/10 from 41 users
◎IMDb链接 https://www.imdb.com/title/tt7188014
◎豆瓣评分 0/10 from 0 users
◎豆瓣链接 https://movie.douban.com/subject/33384740/
◎导  演 Ari Novak
◎编  剧 Tiziano Tucci
◎主  演 萨拉·弗莱彻 Sara Fletcher
      Russell Bradley Fenton
      理查德·里尔 Richard Riehle
      杰·摩尔 Jay Mohr
      Joe Anderson
      Amy McFadden
      Paul Burton Wilson
      Nancy Wagner
      Greg Rogers
      Rachel Struble
      迈克尔·希罗 Michael Sirow


◎标  签 美国 | 2018

◎简  介

  "Pawparazzi Snap!", a gossip show hosted by Sydney Flow and his dog sidekick Nancy O'Dogg, is the hottest celebrity gossip show on television. So what better place for London Bridges, a fast rising Hollywood starlet, to announce her next project "There Will Be Oil", an independent art film by acclaimed director Hugh Franklin and co-starring Dame Ruby Bench. With her pampered pomeranian Latte in tow, London arrives on location to see that she won't be receiving the star treatment she is used to. Not only will the film be shot on a farm in a secluded rural area, but London's accommodations will be on location as well. But when two thieves posing as Paparazzi show up to steal the prized "Academy Necklace" , a prized piece of Hollywood memorabilia that is bestowed about whomever is the current "it girl", London learns that her knight in shining armor is Tom, the simple farmer who is hosting her stay on the farm.
Video
ID : 1
Format : AVC
Format/Info : Advanced Video Codec
Format profile : [email protected]
Format settings : CABAC / 4 Ref Frames
Format settings, CABAC : Yes
Format settings, Reference frames : 4 frames
Codec ID : V_MPEG4/ISO/AVC
Duration : 1 h 37 min
Bit rate : 8 802 kb/s
Width : 1 920 pixels
Height : 1 080 pixels
Display aspect ratio : 16:9
Frame rate mode : Constant
Frame rate : 23.976 (24000/1001) FPS
Color space : YUV
Chroma subsampling : 4:2:0
Bit depth : 8 bits
Scan type : Progressive
Bits/(Pixel*Frame) : 0.177
Stream size : 6.01 GiB (93%)
Default : Yes
Forced : No
Color range : Limited
Color primaries : BT.709
Transfer characteristics : BT.709
Matrix coefficients : BT.709

Audio
ID : 2
Format : E-AC-3
Format/Info : Enhanced AC-3
Commercial name : Dolby Digital Plus
Codec ID : A_EAC3
Duration : 1 h 37 min
Bit rate mode : Constant
Bit rate : 640 kb/s
Channel(s) : 6 channels
Channel layout : L R C LFE Ls Rs
Sampling rate : 48.0 kHz
Frame rate : 31.250 FPS (1536 SPF)
Compression mode : Lossy
Stream size : 448 MiB (7%)
Title : English
Language : English
Service kind : Complete Main
Default : Yes
Forced : No

Text
ID : 3
Format : UTF-8
Codec ID : S_TEXT/UTF8
Codec ID/Info : UTF-8 Plain Text
Duration : 1 h 33 min
Bit rate : 78 b/s
Count of elements : 1652
Stream size : 53.8 KiB (0%)
Title : English [SDH]
Language : English
Default : No
Forced : No





1 个附件 售价 大小 下载 时间

Pawparazzi.2018.1080p.AMZN.WEBRip.DDP5.1.x264-CM.torrent 0 金币 32.76K 287 次 1月前

#1楼
发帖时间:2019-12-09 10:34:05   |   回复数:1
911degrees
隐世仙人♂
非常感谢,谢谢分享
1月前 #2楼
游客组