coor
一代宗师

[2017] [欧美] [动作] [WEB-1080P] 莲花警队 The.Lotus.2018.1080p.AMZN.WEBRip.DDP5.1.x264-NTG 5.06GB

-->

帖子完整标题:莲花警队 The.Lotus.2018.1080p.AMZN.WEBRip.DDP5.1.x264-NTG 5.06GB




◎译  名 莲花警队
◎片  名 The Lotus
◎年  代 2017
◎产  地 美国
◎类  别 动作 / 科幻 / 恐怖
◎语  言 英语
◎上映日期 2018-03-06(美国)
◎IMDb评分 4.9/10 from 696 users
◎IMDb链接 https://www.imdb.com/title/tt3310896
◎豆瓣评分 0/10 from 0 users
◎豆瓣链接 https://movie.douban.com/subject/27188103/
◎片  长 85分钟
◎导  演 Jorge Nunez
◎编  剧 Jorge Nunez
◎主  演 Sami Reynolds
      Raymond Tostado
      卡尔·贝利 Carl Bailey
      Michael Crabtree
      Gideon Swift
      Xiomara Bermudez


◎标  签 美国 | 丧尸 | 科幻 | 烂片 | 剧情 | 美国电影 | 没头没尾的烂 | 恐怖

◎简  介

  In the not so distant future, biochemical technology has advanced in unexpected ways. Unfortunately...
Video
ID : 1
Format : AVC
Format/Info : Advanced Video Codec
Format profile : [email protected]
Format settings : CABAC / 4 Ref Frames
Format settings, CABAC : Yes
Format settings, Reference frames : 4 frames
Codec ID : V_MPEG4/ISO/AVC
Duration : 1 h 22 min
Bit rate : 8 180 kb/s
Width : 1 920 pixels
Height : 1 080 pixels
Display aspect ratio : 16:9
Frame rate mode : Constant
Frame rate : 23.976 (24000/1001) FPS
Color space : YUV
Chroma subsampling : 4:2:0
Bit depth : 8 bits
Scan type : Progressive
Bits/(Pixel*Frame) : 0.165
Stream size : 4.69 GiB (93%)
Default : Yes
Forced : No
Color range : Limited
Color primaries : BT.709
Transfer characteristics : BT.709
Matrix coefficients : BT.709

Audio
ID : 2
Format : E-AC-3
Format/Info : Enhanced AC-3
Commercial name : Dolby Digital Plus
Codec ID : A_EAC3
Duration : 1 h 22 min
Bit rate mode : Constant
Bit rate : 640 kb/s
Channel(s) : 6 channels
Channel layout : L R C LFE Ls Rs
Sampling rate : 48.0 kHz
Frame rate : 31.250 FPS (1536 SPF)
Compression mode : Lossy
Stream size : 376 MiB (7%)
Language : English
Service kind : Complete Main
Default : Yes
Forced : No

Text
ID : 3
Format : UTF-8
Codec ID : S_TEXT/UTF8
Codec ID/Info : UTF-8 Plain Text
Duration : 1 h 21 min
Bit rate : 37 b/s
Count of elements : 897
Stream size : 22.5 KiB (0%)
Title : SDH
Language : English
Default : No
Forced : No





1 个附件 售价 大小 下载 时间

The.Lotus.2018.1080p.AMZN.WEBRip.DDP5.1.x264-NTG.torrent 0 金币 51.14K 546 次 9月前

#1楼
发帖时间:2019-12-09 12:16:26   |   回复数:3
liyouchai
隐世仙人♂
谢谢楼主分享资源
9月前 #2楼
911degrees
隐世仙人♂
非常感谢,谢谢分享
9月前 #3楼
tanchoohoon
武林盟主
感谢楼主的无私分享
9月前 #4楼
游客组