coor
一代宗师

[2018] [欧美] [剧情] [WEB-1080P] 房子里的恶魔 House.Of.Demons.2018.1080p.WEB-DL.DD2.0.H264-FGT 3.10GB

-->

帖子完整标题:房子里的恶魔 House.Of.Demons.2018.1080p.WEB-DL.DD2.0.H264-FGT 3.10GB




◎译  名 房子里的恶魔
◎片  名 House of Demons
◎年  代 2018
◎产  地 美国
◎类  别 剧情 / 恐怖 / 奇幻
◎语  言 英语
◎上映日期 2018-02-06(美国)
◎IMDb评分 3.6/10 from 394 users
◎IMDb链接 https://www.imdb.com/title/tt5886388
◎豆瓣评分 0/10 from 0 users
◎豆瓣链接 https://movie.douban.com/subject/30134427/
◎片  长 90分钟
◎导  演 帕特里克·米尼 Patrick Meaney
◎编  剧 帕特里克·米尼 Patrick Meaney
◎主  演 埃博·本森 Amber Benson
      Kaytlin Borgen
      Morgan Peter Brown


◎标  签 美影 | 神那个棍

◎简  介

  Four estranged friends reunite and spend the night in a remote country house that was once home to a Manson Family like cult. As the night goes on, the strange rituals in the house's past open connections between the past, the present and the subconscious, forcing all the characters to confront their deepest secrets and darkest demons, or be destroyed by them. It's a blend of The Shining style freaky horror with the emotional character focus of a film like Magnolia. The film stars a number of prominent geek culture personalities including Amber Benson (Buffy the Vampire Slayer), Chloe Dykstra (Heroes of Cosplay), Tiffany Smith (DC All Access), etc.
Video
ID : 1
Format : AVC
Format/Info : Advanced Video Codec
Format profile : [email protected]
Format settings : CABAC / 4 Ref Frames
Format settings, CABAC : Yes
Format settings, Reference frames : 4 frames
Codec ID : V_MPEG4/ISO/AVC
Duration : 1 h 29 min
Bit rate : 4 779 kb/s
Width : 1 916 pixels
Height : 1 008 pixels
Display aspect ratio : 1.901
Frame rate mode : Constant
Frame rate : 23.976 FPS
Color space : YUV
Chroma subsampling : 4:2:0
Bit depth : 8 bits
Scan type : Progressive
Bits/(Pixel*Frame) : 0.103
Stream size : 2.98 GiB (96%)
Title : House.Of.Demons.2018.1080p.WEB-DL.DD2.0.H264-FGT
Language : English
Default : Yes
Forced : No
Color range : Limited
Color primaries : BT.709
Transfer characteristics : BT.709
Matrix coefficients : BT.709

Audio
ID : 2
Format : AC-3
Format/Info : Audio Coding 3
Commercial name : Dolby Digital
Codec ID : A_AC3
Duration : 1 h 29 min
Bit rate mode : Constant
Bit rate : 192 kb/s
Channel(s) : 2 channels
Channel layout : L R
Sampling rate : 48.0 kHz
Frame rate : 31.250 FPS (1536 SPF)
Bit depth : 16 bits
Compression mode : Lossy
Stream size : 123 MiB (4%)
Title : House.Of.Demons.2018.1080p.WEB-DL.DD2.0.H264-FGT
Language : English
Service kind : Complete Main
Default : Yes
Forced : No

Text
ID : 3
Format : UTF-8
Codec ID : S_TEXT/UTF8
Codec ID/Info : UTF-8 Plain Text
Duration : 1 h 27 min
Bit rate : 74 b/s
Count of elements : 1352
Stream size : 47.6 KiB (0%)
Language : English
Default : Yes
Forced : No

Menu
00:00:00.000 : en:To Jeff and Abby
00:09:49.255 : en:The Cabin
00:19:38.761 : en:Ita€?s Hard Seeing You
00:29:50.998 : en:Rough Night
00:38:56.376 : en:Cheers Siren
00:49:59.914 : en:They Are Transcending
00:59:56.176 : en:Do You Feel Free?
01:10:11.415 : en:Do It for Me
01:20:28.573 : en:One Last Sacrifice
01:26:33.103 : en:End Credits





1 个附件 售价 大小 下载 时间

House.Of.Demons.2018.1080p.WEB-DL.DD2.0.H264-FGT.torrent 0 金币 31.57K 217 次 7月前

#1楼
发帖时间:2020-01-14 16:24:34   |   回复数:1
911degrees
隐世仙人♂
非常感谢,谢谢分享
6月前 #2楼
游客组