coor
武林盟主

[更 早] [其他] [动作] [WEB-1080P] 撒哈拉/撒哈拉沙漠狙击战 Sahara.1995.1080p.AMZN.WEBRip.DDP2.0.x264-ABM 8.49GB

-->

帖子完整标题:撒哈拉/撒哈拉沙漠狙击战 Sahara.1995.1080p.AMZN.WEBRip.DDP2.0.x264-ABM 8.49GB




◎译  名 撒哈拉 / 撒哈拉沙漠狙击战 / 沙漠英豪
◎片  名 Sahara
◎年  代 1995
◎产  地 澳大利亚 / 美国
◎类  别 动作 / 战争
◎语  言 英语 / 德语
◎上映日期 1995-04-25
◎IMDb评分 6.8/10 from 2595 users
◎IMDb链接 https://www.imdb.com/title/tt0114324
◎豆瓣评分 8.0/10 from 608 users
◎豆瓣链接 https://movie.douban.com/subject/1298613/
◎片  长 106分钟
◎导  演 Brian Trenchard-Smith
◎编  剧 David Phillips
◎主  演 James Belushi
      迈克尔·麦斯 Michael Massee
      Alan David Lee
      Simon Westaway
      Mark Lee
      罗伯特·维斯多姆 Robert Wisdom
      Julian Garner
      Simon Elrahi


◎标  签 二战 | 战争 | 撒哈拉 | 澳大利亚 | 美国 | 1995 | 美国电影 | 电影

◎简  介

  正义的反法西斯联军和纳粹法西斯德军在撒哈拉沙漠为了一口干枯的水井作战。想想:两只军队为了一口干枯的水井兵戈相见、殊死搏斗。
  为什么呢?联军知道水井里面没有水,但是不能放弃那道防线。不然,德军会越过防线威胁到更多的联军。可是,联军经过轮战斗后只剩下了9个人,并且弹药缺乏,只是以一所沙漠中破旧的古迹清真寺做掩护。再看看德军,他们有精良的装备、充分的弹药,人数上占绝对优势,900人左右。虽然,他们缺乏水。但是,这个巨大的悬殊,1:100的战斗对抗!不禁让人胆颤。经过激烈的战斗,联军胜利了!只剩下了两个人。
Video
ID : 1
Format : AVC
Format/Info : Advanced Video Codec
Format profile : [email protected]
Format settings : CABAC / 4 Ref Frames
Format settings, CABAC : Yes
Format settings, Reference frames : 4 frames
Codec ID : V_MPEG4/ISO/AVC
Duration : 1 h 46 min
Bit rate mode : Variable
Bit rate : 11.2 Mb/s
Maximum bit rate : 15.0 Mb/s
Width : 1 920 pixels
Height : 1 080 pixels
Display aspect ratio : 16:9
Frame rate mode : Constant
Frame rate : 23.976 (24000/1001) FPS
Color space : YUV
Chroma subsampling : 4:2:0
Bit depth : 8 bits
Scan type : Progressive
Bits/(Pixel*Frame) : 0.226
Stream size : 8.32 GiB (98%)
Writing library : x264 core 148 r2623 d5b2374
Encoding settings : cabac=1 / ref=4 / deblock=1:-1:-1 / analyse=0x3:0x133 / me=umh / subme=9 / psy=1 / psy_rd=1.00:0.15 / mixed_ref=1 / me_range=24 / chroma_me=1 / trellis=2 / 8x8dct=1 / cqm=0 / deadzone=21,11 / fast_pskip=1 / chroma_qp_offset=-3 / threads=34 / lookahead_threads=5 / sliced_threads=0 / nr=150 / decimate=1 / interlaced=0 / bluray_compat=0 / constrained_intra=0 / bframes=8 / b_pyramid=2 / b_adapt=2 / b_bias=0 / direct=3 / weightb=1 / open_gop=0 / weightp=2 / keyint=120 / keyint_min=61 / scenecut=0 / intra_refresh=0 / rc_lookahead=120 / rc=crf / mbtree=1 / crf=18.0 / qcomp=0.60 / qpmin=0 / qpmax=69 / qpstep=4 / vbv_maxrate=15000 / vbv_bufsize=31250 / crf_max=0.0 / nal_hrd=vbr / filler=0 / ip_ratio=1.40 / aq=3:1.00
Default : Yes
Forced : No
Color range : Limited
Color primaries : BT.709
Transfer characteristics : BT.709
Matrix coefficients : BT.709

Audio
ID : 2
Format : E-AC-3
Format/Info : Enhanced AC-3
Commercial name : Dolby Digital Plus
Codec ID : A_EAC3
Duration : 1 h 46 min
Bit rate mode : Constant
Bit rate : 224 kb/s
Channel(s) : 2 channels
Channel layout : L R
Sampling rate : 48.0 kHz
Frame rate : 31.250 FPS (1536 SPF)
Compression mode : Lossy
Stream size : 170 MiB (2%)
Language : English
Service kind : Complete Main
Default : Yes
Forced : No

Text #1
ID : 3
Format : UTF-8
Codec ID : S_TEXT/UTF8
Codec ID/Info : UTF-8 Plain Text
Duration : 1 h 43 min
Bit rate : 48 b/s
Count of elements : 1236
Stream size : 37.1 KiB (0%)
Language : English
Default : No
Forced : No

Text #2
ID : 4
Format : UTF-8
Codec ID : S_TEXT/UTF8
Codec ID/Info : UTF-8 Plain Text
Duration : 1 h 43 min
Bit rate : 52 b/s
Count of elements : 1366
Stream size : 39.9 KiB (0%)
Title : SDH
Language : English
Default : No
Forced : No





1 个附件 售价 大小 下载 时间

Sahara.1995.1080p.AMZN.WEBRip.DDP2.0.x264-ABM.torrent 0 金币 42.95K 567 次 10天前

#1楼
发帖时间:2020-01-15 07:36:22   |   回复数:2
tanchoohoon
武林盟主
感谢楼主的无私分享
10天前 #2楼
911degrees
隐世仙人♂
非常感谢,谢谢分享
10天前 #3楼
游客组