coor
一代宗师

[2007] [欧美] [其他] [WEB-720P] 追忆街机年代 Chasing.Ghosts.Beyond.the.Arcade.2007.720p.AMZN.WEBRip.DDP2.0.x264-TEPES

-->

帖子完整标题:追忆街机年代 Chasing.Ghosts.Beyond.the.Arcade.2007.720p.AMZN.WEBRip.DDP2.0.x264-TEPES 3.70GB




◎译  名 追忆街机年代
◎片  名 Chasing Ghosts: Beyond the Arcade
◎年  代 2007
◎产  地 美国
◎类  别 纪录片
◎语  言 英语
◎上映日期 2007
◎IMDb评分 7.1/10 from 1298 users
◎IMDb链接 https://www.imdb.com/title/tt0479879
◎豆瓣评分 0/10 from 0 users
◎豆瓣链接 https://movie.douban.com/subject/5213118/
◎片  长 USA: 90 分钟(Sundance Film Festival)
◎导  演 Lincoln Ruchti
◎主  演 Ronald Bailey
      Sam Blackburn
      Leo Daniels


◎标  签 纪录片 | 美国电影 | 游戏

◎简  介

  1982年的游戏世界冠军们与我们分享他们关于街机游戏、游戏伙伴和生活的理解。
Video
ID : 1
Format : AVC
Format/Info : Advanced Video Codec
Format profile : [email protected]
Format settings : CABAC / 4 Ref Frames
Format settings, CABAC : Yes
Format settings, Reference frames : 4 frames
Codec ID : V_MPEG4/ISO/AVC
Duration : 1 h 27 min
Bit rate mode : Constant
Bit rate : 6 000 kb/s
Width : 1 280 pixels
Height : 720 pixels
Display aspect ratio : 16:9
Frame rate mode : Constant
Frame rate : 23.976 (24000/1001/189150) FPS
Color space : YUV
Chroma subsampling : 4:2:0
Bit depth : 8 bits
Scan type : Progressive
Bits/(Pixel*Frame) : 0.272
Stream size : 3.56 GiB (96%)
Language : English
Default : Yes
Forced : No
Color range : Limited
Color primaries : BT.709
Transfer characteristics : BT.709
Matrix coefficients : BT.709

Audio
ID : 2
Format : E-AC-3
Format/Info : Enhanced AC-3
Commercial name : Dolby Digital Plus
Codec ID : A_EAC3
Duration : 1 h 27 min
Bit rate mode : Constant
Bit rate : 224 kb/s
Channel(s) : 2 channels
Channel layout : L R
Sampling rate : 48.0 kHz
Frame rate : 31.250 FPS (1536 SPF)
Compression mode : Lossy
Stream size : 140 MiB (4%)
Language : English
Service kind : Complete Main
Default : Yes
Forced : No

Text #1
ID : 3
Format : UTF-8
Codec ID : S_TEXT/UTF8
Codec ID/Info : UTF-8 Plain Text
Duration : 1 h 26 min
Bit rate : 107 b/s
Count of elements : 1933
Stream size : 68.5 KiB (0%)
Language : English
Default : No
Forced : No

Text #2
ID : 4
Format : UTF-8
Codec ID : S_TEXT/UTF8
Codec ID/Info : UTF-8 Plain Text
Duration : 1 h 26 min
Bit rate : 116 b/s
Count of elements : 2063
Stream size : 74.1 KiB (0%)
Language : English
Default : No
Forced : No





1 个附件 售价 大小 下载 时间

Chasing.Ghosts.Beyond.the.Arcade.2007.720p.AMZN.WEBRip.DDP2.0.x264-TEPES.torrent 0 金币 37.60K 364 次 9天前

#1楼
发帖时间:2020-03-24 22:24:23   |   回复数:3
liyouchai
隐世仙人♂
谢谢楼主分享资源
9天前 #2楼
911degrees
隐世仙人♂
非常感谢,谢谢分享
8天前 #3楼
solodl
武林高手
60或665后冠军。
7天前 #4楼
游客组