coor
一代宗师

[2019] [欧美] [动作] [BD-720P] 爆裂老兵 VFW.2019.720p.BluRay.x264-ROVERS 4.37GB

-->

帖子完整标题:爆裂老兵 VFW.2019.720p.BluRay.x264-ROVERS 4.37GB




◎译  名 爆裂老兵 / Veterans of Foreign Wars / 海外作战退伍军人 / 美国国外战争退伍军人 / 老兵
◎片  名 V.F.W.
◎年  代 2019
◎产  地 美国
◎类  别 动作 / 恐怖
◎语  言 英语
◎上映日期 2019-09-21(美国)
◎IMDb评分 6.3/10 from 1250 users
◎IMDb链接 https://www.imdb.com/title/tt9894470
◎豆瓣评分 5.1/10 from 175 users
◎豆瓣链接 https://movie.douban.com/subject/30478334/
◎片  长 92分钟
◎导  演 Joe Begos
◎编  剧 马克斯·布莱利尔 Max Brallier / Matthew McArdle
◎主  演 多拉·马迪森·布鲁格 Dora Madison Burge
      史蒂芬·朗 Stephen Lang
      乔治·温迪特 George Wendt
      威廉姆·赛德勒 William Sadler
      马丁·科夫 Martin Kove
      大卫·帕特里克·凯利 David Patrick Kelly
      谢拉·麦克康米克 Sierra McCormick
      弗雷德·威廉森 Fred Williamson
      汤姆·威廉姆森 Tom Williamson
      Graham Skipper
      Travis Hammer
      Josh Ethier
      Linnea Wilson
      Preston Fassel
      Taylor Harris
      Leon Slaughter


◎标  签 动作 | 美国电影 | 2019 | 恐怖 | 美国 | 血腥 | 犯罪 | 史蒂芬·朗

◎简  介

  史蒂芬·朗将主演动作恐怖新片[V.F.W.]。影片被描述为[日落黄沙]和[活死人之夜]的结合体。故事讲述弗雷德和他的战友们必须保护他们当地的VFW基地。一个无辜的青少年将对抗疯狂的毒贩和无情的朋克变种人军队。这将是这些越战老兵们一生中最漫长的夜晚。本片由乔·毕高斯执导,马克斯·布拉利尔、马修·麦卡德尔撰写剧本,将于本月在达拉斯开机。
Video
ID : 1
Format : AVC
Format/Info : Advanced Video Codec
Format profile : [email protected]
Format settings : CABAC / 5 Ref Frames
Format settings, CABAC : Yes
Format settings, Reference frames : 5 frames
Codec ID : V_MPEG4/ISO/AVC
Duration : 1 h 31 min
Bit rate : 5 319 kb/s
Width : 1 280 pixels
Height : 536 pixels
Display aspect ratio : 2.40:1
Frame rate mode : Constant
Frame rate : 24.000 FPS
Color space : YUV
Chroma subsampling : 4:2:0
Bit depth : 8 bits
Scan type : Progressive
Bits/(Pixel*Frame) : 0.323
Stream size : 3.40 GiB (78%)
Writing library : x264 core 159 r2991 1771b55
Encoding settings : cabac=1 / ref=5 / deblock=1:-3:-3 / analyse=0x3:0x113 / me=umh / subme=8 / psy=1 / psy_rd=1.00:0.00 / mixed_ref=1 / me_range=16 / chroma_me=1 / trellis=1 / 8x8dct=1 / cqm=0 / deadzone=21,11 / fast_pskip=1 / chroma_qp_offset=-2 / threads=17 / lookahead_threads=2 / sliced_threads=0 / nr=0 / decimate=1 / interlaced=0 / bluray_compat=0 / constrained_intra=0 / bframes=3 / b_pyramid=2 / b_adapt=1 / b_bias=0 / direct=3 / weightb=1 / open_gop=0 / weightp=2 / keyint=250 / keyint_min=24 / scenecut=40 / intra_refresh=0 / rc_lookahead=50 / rc=2pass / mbtree=1 / bitrate=5319 / ratetol=1.0 / qcomp=0.60 / qpmin=0 / qpmax=69 / qpstep=4 / cplxblur=20.0 / qblur=0.5 / ip_ratio=1.40 / aq=1:1.00
Language : English
Default : Yes
Forced : No

Audio
ID : 2
Format : DTS
Format/Info : Digital Theater Systems
Codec ID : A_DTS
Duration : 1 h 31 min
Bit rate mode : Constant
Bit rate : 1 509 kb/s
Channel(s) : 6 channels
Channel layout : C L R Ls Rs LFE
Sampling rate : 48.0 kHz
Frame rate : 93.750 FPS (512 SPF)
Bit depth : 24 bits
Compression mode : Lossy
Stream size : 989 MiB (22%)
Language : English
Default : Yes
Forced : No





1 个附件 售价 大小 下载 时间

VFW.2019.720p.BluRay.x264-ROVERS.torrent 0 金币 44.46K 728 次 8天前

#1楼
发帖时间:2020-03-25 03:22:46   |   回复数:1
911degrees
隐世仙人♂
非常感谢,谢谢分享
8天前 #2楼
游客组