coor
一代宗师

[2007] [欧美] [剧情] [WEB-1080P] 俘获玛丽/记录玛丽 Capturing.Mary.2007.1080p.AMZN.WEBRip.DDP2.0.x264-TEPES 10.57GB

-->

帖子完整标题:俘获玛丽/记录玛丽 Capturing.Mary.2007.1080p.AMZN.WEBRip.DDP2.0.x264-TEPES 10.57GB




◎译  名 俘获玛丽 / 记录玛丽
◎片  名 Capturing Mary
◎年  代 2007
◎产  地 英国
◎类  别 剧情
◎语  言 英语
◎上映日期 2007-11-12
◎IMDb评分 6.9/10 from 1563 users
◎IMDb链接 https://www.imdb.com/title/tt0899052
◎豆瓣评分 7.8/10 from 268 users
◎豆瓣链接 https://movie.douban.com/subject/2287158/
◎导  演 斯蒂芬·波利亚科夫 Stephen Poliakoff
◎编  剧 斯蒂芬·波利亚科夫 Stephen Poliakoff
◎主  演 玛吉·史密斯 Maggie Smith
      大卫·威廉姆斯 David Walliams
      露丝·威尔森 Ruth Wilson


◎标  签 英国 | MaggieSmith | BBC | 英国电影 | 英剧 | 女性 | 2007 | DavidWilliams

◎简  介

  如果没有看AReal Summer,并不会对欣赏 Capturing Mary有太大影响。这个故事是说女作家 Mary年纪轻轻就显露才华,为一家星期天报纸写专栏,以“年轻人的声音”自居。她被邀请到 Joe’s Palace中的大宅参加名流艺术家的晚会,遭遇了一个神秘且具有强大影响力的男人Greville。Mary被Greville的神秘感吸引,然而面对他的步步逼近的精神上的操纵,她坚决地拒绝了。她的事业从此碰壁,写作陷入低潮。多年以后Mary已经重建自己的事业,却一直无法走出Greville的阴影,为逃避精神上的压力而酗酒。直到有一天她终于鼓足勇气,面对过去,重返久违的大宅,看门人Joe为她打开了大门……
Video
ID : 1
Format : AVC
Format/Info : Advanced Video Codec
Format profile : [email protected]
Format settings : CABAC / 4 Ref Frames
Format settings, CABAC : Yes
Format settings, Reference frames : 4 frames
Codec ID : V_MPEG4/ISO/AVC
Duration : 1 h 44 min
Bit rate mode : Variable
Bit rate : 14.2 Mb/s
Maximum bit rate : 15.0 Mb/s
Width : 1 920 pixels
Height : 1 080 pixels
Display aspect ratio : 16:9
Frame rate mode : Constant
Frame rate : 23.976 (24000/1001/189150) FPS
Color space : YUV
Chroma subsampling : 4:2:0
Bit depth : 8 bits
Scan type : Progressive
Bits/(Pixel*Frame) : 0.286
Stream size : 10.4 GiB (98%)
Default : Yes
Forced : No
Color range : Limited
Color primaries : BT.709
Transfer characteristics : BT.709
Matrix coefficients : BT.709

Audio
ID : 2
Format : E-AC-3
Format/Info : Enhanced AC-3
Commercial name : Dolby Digital Plus
Codec ID : A_EAC3
Duration : 1 h 44 min
Bit rate mode : Constant
Bit rate : 224 kb/s
Channel(s) : 2 channels
Channel layout : L R
Sampling rate : 48.0 kHz
Frame rate : 31.250 FPS (1536 SPF)
Compression mode : Lossy
Stream size : 168 MiB (2%)
Language : English
Service kind : Complete Main
Default : Yes
Forced : No

Text #1
ID : 3
Format : UTF-8
Codec ID : S_TEXT/UTF8
Codec ID/Info : UTF-8 Plain Text
Duration : 1 h 41 min
Bit rate : 63 b/s
Count of elements : 1495
Stream size : 46.9 KiB (0%)
Language : English
Default : No
Forced : No

Text #2
ID : 4
Format : UTF-8
Codec ID : S_TEXT/UTF8
Codec ID/Info : UTF-8 Plain Text
Duration : 1 h 42 min
Bit rate : 66 b/s
Count of elements : 1604
Stream size : 50.4 KiB (0%)
Title : SDH
Language : English
Default : No
Forced : No





1 个附件 售价 大小 下载 时间

Capturing.Mary.2007.1080p.AMZN.WEBRip.DDP2.0.x264-TEPES.torrent 0 金币 53.40K 245 次 12天前

#1楼
发帖时间:2020-05-22 23:59:10   |   回复数:1
911degrees
隐世仙人♂
非常感谢,谢谢分享
12天前 #2楼
游客组