coor
一代宗师

[更 早] [其他] [剧情] [BD-720P] 圣女贞德:战争篇 Joan.the.Maid.1.The.Battles.1994.720p.BluRay.x264-DEPTH 8.89GB

-->

帖子完整标题:圣女贞德:战争篇 Joan.the.Maid.1.The.Battles.1994.720p.BluRay.x264-DEPTH 8.89GB




◎译  名 圣女贞德:战争篇 / Joan the Maid 1.: The Battles
◎片  名 Jeanne la Pucelle I - Les batailles
◎年  代 1994
◎产  地 法国
◎类  别 剧情 / 传记 / 历史 / 战争
◎语  言 法语
◎上映日期 1994-02-09(法国)
◎IMDb评分 7.1/10 from 547 users
◎IMDb链接 https://www.imdb.com/title/tt0107259
◎豆瓣评分 7.3/10 from 103 users
◎豆瓣链接 https://movie.douban.com/subject/1957964/
◎片  长 160 分钟
◎导  演 雅克·里维特 Jacques Rivette
◎编  剧 帕斯卡尔·博尼策尔 Pascal Bonitzer / Christine Laurent / 雅克·里维特 Jacques Rivette
◎主  演 Tatiana Moukhine
      桑德里娜·博内尔 Sandrine Bonnaire
      Jean-Marie Richier
      Baptiste Roussillon
      Jean-Luc Petit
      Bernadette Giraud
      Jean-Claude Jay
      Olivier Cruveiller
      Benjamin Rataud
      Cyril Haouzi
      Réginald Huguenin
      Patrick Adomian
      Nicolas Vian
      安德烈·马尔孔 André Marcon
      让-路易·里夏尔 Jean-Louis Richard
      马塞尔·博佐内 Marcel Bozonnet
      让-皮耶·罗利特 Jean-Pierre Lorit
      Jér?me Nicolin
      布鲁诺·沃尔科维奇 Bruno Wolkowitch
      皮埃尔·巴约 Pierre Baillot
      马蒂亚斯·容 Mathias Jung
      泽维尔·玛利 Xavier Maly
      雅克·里维特 Jacques Rivette


◎标  签 法国 | Jacques_Rivette | 法国电影 | JacquesRivette | 传记 | 雅克·里维特 | 1994 | 1990s

◎简  介

  暂无相关剧情介绍
Video
ID : 1
Format : AVC
Format/Info : Advanced Video Codec
Format profile : [email protected]
Format settings : CABAC / 9 Ref Frames
Format settings, CABAC : Yes
Format settings, Reference frames : 9 frames
Codec ID : V_MPEG4/ISO/AVC
Duration : 2 h 40 min
Bit rate : 7 285 kb/s
Width : 1 280 pixels
Height : 690 pixels
Display aspect ratio : 1.85:1
Frame rate mode : Constant
Frame rate : 24.000 FPS
Color space : YUV
Chroma subsampling : 4:2:0
Bit depth : 8 bits
Scan type : Progressive
Bits/(Pixel*Frame) : 0.344
Stream size : 8.16 GiB (92%)
Writing library : x264 core 160 r3000 33f9e14
Encoding settings : cabac=1 / ref=9 / deblock=1:-3:-3 / analyse=0x3:0x133 / me=umh / subme=10 / psy=1 / psy_rd=1.00:0.15 / mixed_ref=1 / me_range=32 / chroma_me=1 / trellis=2 / 8x8dct=1 / cqm=0 / deadzone=21,11 / fast_pskip=0 / chroma_qp_offset=-3 / threads=22 / lookahead_threads=3 / sliced_threads=0 / nr=0 / decimate=1 / interlaced=0 / bluray_compat=0 / constrained_intra=0 / bframes=8 / b_pyramid=2 / b_adapt=2 / b_bias=0 / direct=3 / weightb=1 / open_gop=0 / weightp=2 / keyint=250 / keyint_min=24 / scenecut=40 / intra_refresh=0 / rc=crf / mbtree=0 / crf=17.5 / qcomp=0.60 / qpmin=0 / qpmax=69 / qpstep=4 / ip_ratio=1.40 / pb_ratio=1.30 / aq=3:0.80
Default : Yes
Forced : No

Audio
ID : 2
Format : AC-3
Format/Info : Audio Coding 3
Commercial name : Dolby Digital
Codec ID : A_AC3
Duration : 2 h 40 min
Bit rate mode : Constant
Bit rate : 640 kb/s
Channel(s) : 6 channels
Channel layout : L R C LFE Ls Rs
Sampling rate : 48.0 kHz
Frame rate : 31.250 FPS (1536 SPF)
Bit depth : 16 bits
Compression mode : Lossy
Stream size : 734 MiB (8%)
Language : French
Service kind : Complete Main
Default : Yes
Forced : No

Text #1
ID : 3
Format : UTF-8
Codec ID : S_TEXT/UTF8
Codec ID/Info : UTF-8 Plain Text
Duration : 2 h 32 min
Bit rate : 38 b/s
Count of elements : 1498
Stream size : 43.3 KiB (0%)
Language : English
Default : Yes
Forced : Yes

Text #2
ID : 4
Format : PGS
Muxing mode : zlib
Codec ID : S_HDMV/PGS
Codec ID/Info : Picture based subtitle format used on BDs/HD-DVDs
Duration : 2 h 32 min
Bit rate : 27.9 kb/s
Count of elements : 2997
Stream size : 30.5 MiB (0%)
Language : English
Default : No
Forced : No

Menu
00:00:00.000 : en:Chapter 01
00:07:40.875 : en:Chapter 02
00:21:30.625 : en:Chapter 03
00:32:14.625 : en:Chapter 04
00:38:37.167 : en:Chapter 05
00:51:53.583 : en:Chapter 06
01:00:13.000 : en:Chapter 07
01:12:40.750 : en:Chapter 08
01:21:54.625 : en:Chapter 09
01:31:21.250 : en:Chapter 10
01:41:35.083 : en:Chapter 11
01:50:20.792 : en:Chapter 12
02:00:20.542 : en:Chapter 13
02:09:46.833 : en:Chapter 14
02:19:08.000 : en:Chapter 15
02:29:03.500 : en:Chapter 16





1 个附件 售价 大小 下载 时间

Joan.the.Maid.1.The.Battles.1994.720p.BluRay.x264-DEPTH.torrent 0 金币 45.13K 595 次 7天前

#1楼
发帖时间:2020-05-23 14:32:07   |   回复数:1
911degrees
隐世仙人♂
非常感谢,谢谢分享
7天前 #2楼
游客组