coor
一代宗师

[更 早] [欧美] [剧情] [BD-1080P] 铁案风云/警察大亨 Q.and.A.1990.1080p.BluRay.x264.DTS-FGT 12.04GB

-->



◎译  名 铁案风云 / 警察大亨
◎片  名 Q & A
◎年  代 1990
◎产  地 美国
◎类  别 剧情 / 犯罪
◎语  言 英语
◎上映日期 1990-04-27
◎IMDb评分 6.6/10 from 5117 users
◎IMDb链接 https://www.imdb.com/title/tt0100442
◎豆瓣评分 0/10 from 0 users
◎豆瓣链接 https://movie.douban.com/subject/1292617/
◎片  长 132 分钟
◎导  演 Sidney Lumet
◎编  剧 Sidney Lumet
◎主  演 Nick Nolte
      Timothy Hutton
      Armand Assante
      Patrick O'Neal
      Charles S. Dutton


◎标  签 美国 | 西德尼·吕美特 | 剧情 | Sidney_Lumet | 1990 | 美国电影 | 犯罪 | SidneyLumet

◎简  介

  A young district attorney seeking to prove a case against a corrupt police detective encounters a former lover and her new protector, a crime boss who refuse to help him in this gritty crime film.
Video
ID : 1
Format : AVC
Format/Info : Advanced Video Codec
Format profile : [email protected]
Format settings : CABAC / 4 Ref Frames
Format settings, CABAC : Yes
Format settings, Reference frames : 4 frames
Codec ID : V_MPEG4/ISO/AVC
Duration : 2 h 12 min
Bit rate : 11.5 Mb/s
Width : 1 920 pixels
Height : 1 080 pixels
Display aspect ratio : 16:9
Frame rate mode : Constant
Frame rate : 23.976 (24000/1001/189150) FPS
Color space : YUV
Chroma subsampling : 4:2:0
Bit depth : 8 bits
Scan type : Progressive
Bits/(Pixel*Frame) : 0.231
Stream size : 10.6 GiB (88%)
Title : Q.and.A.1990.1080p.BluRay.x264.DTS-FGT
Writing library : x264 core 148 r2795M aaa9aa8
Encoding settings : cabac=1 / ref=4 / deblock=1:-2:-2 / analyse=0x3:0x113 / me=umh / subme=9 / psy=1 / psy_rd=1.00:0.15 / mixed_ref=1 / me_range=16 / chroma_me=1 / trellis=2 / 8x8dct=1 / cqm=0 / deadzone=21,11 / fast_pskip=1 / chroma_qp_offset=-3 / threads=72 / lookahead_threads=3 / sliced_threads=0 / nr=0 / decimate=1 / interlaced=0 / bluray_compat=0 / constrained_intra=0 / bframes=3 / b_pyramid=2 / b_adapt=1 / b_bias=0 / direct=3 / weightb=1 / open_gop=0 / weightp=2 / keyint=250 / keyint_min=25 / scenecut=40 / intra_refresh=0 / rc_lookahead=50 / rc=2pass / mbtree=1 / bitrate=11500 / ratetol=1.0 / qcomp=0.60 / qpmin=0 / qpmax=69 / qpstep=4 / cplxblur=20.0 / qblur=0.5 / vbv_maxrate=31250 / vbv_bufsize=31250 / nal_hrd=none / filler=0 / ip_ratio=1.40 / aq=1:1.00
Language : English
Default : Yes
Forced : No

Audio
ID : 2
Format : DTS
Format/Info : Digital Theater Systems
Codec ID : A_DTS
Duration : 2 h 12 min
Bit rate mode : Constant
Bit rate : 1 509 kb/s
Channel(s) : 2 channels
Channel layout : L R
Sampling rate : 48.0 kHz
Frame rate : 93.750 FPS (512 SPF)
Bit depth : 16 bits
Compression mode : Lossy
Stream size : 1.40 GiB (12%)
Title : Q.and.A.1990.1080p.BluRay.x264.DTS-FGT
Language : English
Default : Yes
Forced : No

Menu
00:00:00.000 : en:Chapter 01
00:05:17.233 : en:Chapter 02
00:11:56.048 : en:Chapter 03
00:15:56.163 : en:Chapter 04
00:18:48.168 : en:Chapter 05
00:23:33.203 : en:Chapter 06
00:36:35.818 : en:Chapter 07
00:39:24.779 : en:Chapter 08
00:45:29.685 : en:Chapter 09
00:47:23.882 : en:Chapter 10
00:51:41.556 : en:Chapter 11
00:58:26.127 : en:Chapter 12
01:03:12.705 : en:Chapter 13
01:11:51.015 : en:Chapter 14
01:14:31.425 : en:Chapter 15
01:18:37.754 : en:Chapter 16
01:21:58.330 : en:Chapter 17
01:31:21.309 : en:Chapter 18
01:34:01.385 : en:Chapter 19
01:42:17.464 : en:Chapter 20
01:51:03.281 : en:Chapter 21
01:55:34.302 : en:Chapter 22
01:59:56.230 : en:Chapter 23
02:10:12.930 : en:Chapter 24





1 个附件 售价 大小 下载 时间

Q.and.A.1990.1080p.BluRay.x264.DTS-FGT.torrent 0 金币 60.69K 553 次 4天前

#1楼
发帖时间:2020-06-30 11:32:20   |   回复数:1
911degrees
隐世仙人♂
非常感谢,谢谢分享
4天前 #2楼
游客组