coor
一代宗师

[更 早] [欧美] [剧情] [BD-1080P] 绝对复仇/复仇飚花 Sworn.to.Justice.1996.1080p.BluRay.x264.DTS-FGT 8.34GB

-->



◎译  名 绝对复仇 / 复仇飚花
◎片  名 Sworn to Justice
◎年  代 1996
◎产  地 美国
◎类  别 剧情 / 动作
◎语  言 英语
◎上映日期 1997-02-11
◎IMDb评分 5.0/10 from 479 users
◎IMDb链接 https://www.imdb.com/title/tt0117803
◎豆瓣评分 0/10 from 0 users
◎豆瓣链接 https://movie.douban.com/subject/1305627/
◎片  长 97 分钟
◎导  演 Paul Maslak
◎编  剧 Neva Friedenn / Paul Maslak / Robert Easter
◎主  演 Cynthia Rothrock
      Makoto Nonomura
      布拉德·道里夫


◎标  签 罗芙洛 | 美国 | 动作 | 1997 | 美国电影 | 234

◎简  介

  琼娜是一位美艳性感的心理医生,在一次出差返家之后,琼娜的家中竟然闯入一个来路不明的蒙面客,虽然她奋力地与对方作殊死战,但是很不幸地,仍然挽救不了姊姊和侄儿的性命。不过,不幸中的大幸是,琼娜在历经了九死一生后,逃出歹徒的攻击。但是她的头部也因此受到严重的创伤,而被送入医院。出院后,琼娜在一位年轻律师库克的帮助下,打算出庭作证,找出杀害她家人的凶手,可是,丧亲之痛与暴徒的阴影却一直在她心中挥之不去。随着情况的日益严重,这场悲剧竟使得琼娜开始出现幻觉,频频见到一些未曾出现的血腥场面……
Video
ID : 1
Format : AVC
Format/Info : Advanced Video Codec
Format profile : [email protected]
Format settings : CABAC / 4 Ref Frames
Format settings, CABAC : Yes
Format settings, Reference frames : 4 frames
Codec ID : V_MPEG4/ISO/AVC
Duration : 1 h 37 min
Bit rate : 11.5 Mb/s
Width : 1 920 pixels
Height : 1 080 pixels
Display aspect ratio : 16:9
Frame rate mode : Constant
Frame rate : 23.976 (24000/1001/189150) FPS
Color space : YUV
Chroma subsampling : 4:2:0
Bit depth : 8 bits
Scan type : Progressive
Bits/(Pixel*Frame) : 0.231
Stream size : 7.82 GiB (94%)
Title : Sworn.to.Justice.1996.1080p.BluRay.x264.DTS-FGT
Writing library : x264 core 148 r2795M aaa9aa8
Encoding settings : cabac=1 / ref=4 / deblock=1:-2:-2 / analyse=0x3:0x113 / me=umh / subme=9 / psy=1 / psy_rd=1.00:0.15 / mixed_ref=1 / me_range=16 / chroma_me=1 / trellis=2 / 8x8dct=1 / cqm=0 / deadzone=21,11 / fast_pskip=1 / chroma_qp_offset=-3 / threads=24 / lookahead_threads=3 / sliced_threads=0 / nr=0 / decimate=1 / interlaced=0 / bluray_compat=0 / constrained_intra=0 / bframes=3 / b_pyramid=2 / b_adapt=1 / b_bias=0 / direct=3 / weightb=1 / open_gop=0 / weightp=2 / keyint=250 / keyint_min=25 / scenecut=40 / intra_refresh=0 / rc_lookahead=50 / rc=2pass / mbtree=1 / bitrate=11500 / ratetol=1.0 / qcomp=0.60 / qpmin=0 / qpmax=69 / qpstep=4 / cplxblur=20.0 / qblur=0.5 / vbv_maxrate=31250 / vbv_bufsize=31250 / nal_hrd=none / filler=0 / ip_ratio=1.40 / aq=1:1.00
Language : English
Default : Yes
Forced : No

Audio
ID : 2
Format : DTS
Format/Info : Digital Theater Systems
Codec ID : A_DTS
Duration : 1 h 37 min
Bit rate mode : Constant
Bit rate : 768 kb/s
Channel(s) : 2 channels
Channel layout : L R
Sampling rate : 48.0 kHz
Frame rate : 93.750 FPS (512 SPF)
Bit depth : 16 bits
Compression mode : Lossy
Stream size : 535 MiB (6%)
Title : Sworn.to.Justice.1996.1080p.BluRay.x264.DTS-FGT
Language : English
Default : No
Forced : No

Text
ID : 3
Format : UTF-8
Codec ID : S_TEXT/UTF8
Codec ID/Info : UTF-8 Plain Text
Duration : 1 h 30 min
Bit rate : 50 b/s
Count of elements : 1111
Stream size : 33.4 KiB (0%)
Language : English
Default : Yes
Forced : No

Menu
00:00:00.000 : en:Chapter 01
00:08:03.774 : en:Chapter 02
00:16:05.297 : en:Chapter 03
00:24:50.447 : en:Chapter 04
00:32:31.074 : en:Chapter 05
00:38:26.971 : en:Chapter 06
00:50:27.482 : en:Chapter 07
00:56:29.344 : en:Chapter 08
01:04:20.898 : en:Chapter 09
01:12:03.485 : en:Chapter 10
01:21:39.936 : en:Chapter 11
01:29:29.030 : en:Chapter 12





1 个附件 售价 大小 下载 时间

Sworn.to.Justice.1996.1080p.BluRay.x264.DTS-FGT.torrent 0 金币 83.93K 581 次 4天前

#1楼
发帖时间:2020-06-30 11:36:17   |   回复数:1
911degrees
隐世仙人♂
非常感谢,谢谢分享
4天前 #2楼
游客组