coor
一代宗师

[2011] [其他] [惊悚] [BD-1080P] 商战 Supercapitalist.2012.1080p.BluRay.x264.DTS-FGT 4.05GB

-->



◎译  名 商战 / $upercapitalist / 富豪 / 超级资本家
◎片  名 Supercapitalist
◎年  代 2011
◎产  地 美国 / 中国香港
◎类  别 惊悚
◎语  言 英语 / 汉语普通话
◎上映日期 2012-08-10(美国)
◎IMDb评分 4.6/10 from 519 users
◎IMDb链接 https://www.imdb.com/title/tt1734586
◎豆瓣评分 4.6/10 from 231 users
◎豆瓣链接 https://movie.douban.com/subject/5319817/
◎导  演 Simon Yin
◎编  剧 丁温庆 Derek Ting
◎主  演 曾江 Kenneth Tsang
      吴耀汉 Richard Ng
      丁温庆 Derek Ting
      莱纳斯·罗彻 Linus Roache


◎标  签 金融 | 香港 | 美国 | 商业 | 美国电影 | 烂片 | 2012 | 2011

◎简  介

  一名性格特立独行的纽约对冲基金交易员Conner Lee(丁温庆 饰)受到美国及亚洲两般金融恶势力的牵引,到香港展开了一场惊天动地的家族企业并购商战。为求达成这项市值数十亿元的世纪商业买卖,Conner不择手段,并甘愿以自己的生命以及一间公司的未来作赌注,决意在香港这个复杂的弹丸之地以身犯险。
Video
ID : 1
Format : AVC
Format/Info : Advanced Video Codec
Format profile : [email protected]
Format settings, CABAC : Yes
Format settings, ReFrames : 5 frames
Codec ID : V_MPEG4/ISO/AVC
Duration : 1h 42mn
Bit rate : 4 037 Kbps
Width : 1 920 pixels
Height : 816 pixels
Display aspect ratio : 2.35:1
Frame rate mode : Constant
Frame rate : 23.976 (24000/1001) fps
Color space : YUV
Chroma subsampling : 4:2:0
Bit depth : 8 bits
Scan type : Progressive
Bits/(Pixel*Frame) : 0.107
Stream size : 2.89 GiB (71%)
Writing library : x264 core 130 r2273 b3065e6
Encoding settings : cabac=1 / ref=5 / deblock=1:-1:-1 / analyse=0x3:0x133 / me=umh / subme=7 / psy=1 / psy_rd=1.00:0.15 / mixed_ref=1 / me_range=16 / chroma_me=1 / trellis=1 / 8x8dct=1 / cqm=0 / deadzone=21,11 / fast_pskip=0 / chroma_qp_offset=-3 / threads=6 / lookahead_threads=1 / sliced_threads=0 / nr=0 / decimate=1 / interlaced=0 / bluray_compat=0 / constrained_intra=0 / bframes=3 / b_pyramid=2 / b_adapt=1 / b_bias=0 / direct=3 / weightb=1 / open_gop=0 / weightp=2 / keyint=240 / keyint_min=23 / scenecut=40 / intra_refresh=0 / rc_lookahead=40 / rc=crf / mbtree=1 / crf=20.0 / qcomp=0.60 / qpmin=10 / qpmax=51 / qpstep=4 / ip_ratio=1.40 / aq=1:1.00
Language : English
Default : Yes
Forced : No

Audio
ID : 2
Format : DTS
Format/Info : Digital Theater Systems
Mode : 16
Format settings, Endianness : Big
Codec ID : A_DTS
Duration : 1h 42mn
Bit rate mode : Constant
Bit rate : 1 509 Kbps
Channel(s) : 6 channels
Channel positions : Front: L C R, Side: L R, LFE
Sampling rate : 48.0 KHz
Frame rate : 93.750 fps (512 spf)
Bit depth : 24 bits
Compression mode : Lossy
Stream size : 1.08 GiB (27%)
Language : English
Default : Yes
Forced : No





1 个附件 售价 大小 下载 时间

Supercapitalist.2012.1080p.BluRay.x264.DTS-FGT.torrent 0 金币 81.53K 182 次 4天前

#1楼
发帖时间:2020-06-30 21:36:36   |   回复数:1
911degrees
隐世仙人♂
非常感谢,谢谢分享
3天前 #2楼
游客组