coor
一代宗师

[更 早] [其他] [科幻] [BD-1080P] 僵尸坟场 The.Living.Dead.At.The.Manchester.Morgue.1974.1080p.BluRay.x264.DTS-FGT 8.4

-->



◎译  名 僵尸坟场 / Let Sleeping Corpses Lie / The Living Dead At The Manchester Morgue
◎片  名 Non si deve profanare il sonno dei morti
◎年  代 1974
◎产  地 西班牙 / 意大利
◎类  别 科幻 / 恐怖
◎语  言 意大利语
◎上映日期 1974-11-28
◎IMDb评分 6.8/10 from 7012 users
◎IMDb链接 https://www.imdb.com/title/tt0071431
◎豆瓣评分 6.7/10 from 406 users
◎豆瓣链接 https://movie.douban.com/subject/2174144/
◎片  长 Italy: 95 分钟
◎导  演 豪尔赫·格劳 Jorge Grau
◎编  剧 桑德罗·孔蒂嫩扎 Sandro Continenza / Marcello Coscia / Miguel Rubio
◎主  演 克里斯蒂娜·伽尔博 Cristina Galbó
      雷·洛夫洛克 Ray Lovelock
      阿瑟·肯尼迪 Arthur Kennedy


◎标  签 恐怖 | 僵尸 | 丧尸 | 意大利 | 西班牙 | 惊悚 | 1970s | 英国

◎简  介

  政府采用了一种辐射灭虫器用来消灭农田里的害虫,但却引起了可怕的后果。杀虫器所放射出的有害物质使附近的死人复活,并将他们变成了饥饿的丧尸。然而正在农场附近的约翰和安娜两个人不幸被丧尸袭击,后在警员的帮助下才得以逃脱,可警员却葬身尸腹。于是约翰被警方怀疑涉嫌谋杀而遭到拘捕,安娜则被送往医院中。由于病毒不断的扩散,致使医院里的死人纷纷爬起袭击活人,约翰得知消息后不顾一切逃出警局,但他还能赶得及去拯救安娜吗……
  这是一部由意大利与西班牙影业联合监制的七十年代恐怖杰作,被广大恐怖影迷奉为经典的作品,也是七十年代最卖座的丧尸电影,影片拍摄的时尚大气,丝毫没有拘束感。片子虽然被指模仿了罗梅罗的<活死人之夜>,但在某些创意上却有着天差地壤之别。在开场几分钟的时间里,导演就把社会的灰暗面表露无疑,然后笔锋一转,便开始了紧张的剧情。片中的丧尸首次被赋予了智慧,其男女主角也有相当的悲情色彩等,有许多情节被后来的一些丧尸片竞相模仿,甚至使其成为了一部里程碑式的作品。
Video
ID : 1
Format : AVC
Format/Info : Advanced Video Codec
Format profile : [email protected]
Format settings, CABAC : Yes
Format settings, ReFrames : 4 frames
Codec ID : V_MPEG4/ISO/AVC
Duration : 1h 32mn
Bit rate : 11.5 Mbps
Width : 1 920 pixels
Height : 1 030 pixels
Display aspect ratio : 1.85:1
Frame rate mode : Constant
Frame rate : 23.976 (24000/1001) fps
Color space : YUV
Chroma subsampling : 4:2:0
Bit depth : 8 bits
Scan type : Progressive
Bits/(Pixel*Frame) : 0.243
Stream size : 7.34 GiB (86%)
Writing library : x264 core 148 r2694 3b70645
Encoding settings : cabac=1 / ref=4 / deblock=1:-2:-2 / analyse=0x3:0x113 / me=umh / subme=7 / psy=1 / psy_rd=1.00:0.15 / mixed_ref=1 / me_range=16 / chroma_me=1 / trellis=1 / 8x8dct=1 / cqm=0 / deadzone=21,11 / fast_pskip=1 / chroma_qp_offset=-3 / threads=40 / lookahead_threads=3 / sliced_threads=0 / nr=0 / decimate=1 / interlaced=0 / bluray_compat=0 / constrained_intra=0 / bframes=3 / b_pyramid=2 / b_adapt=2 / b_bias=0 / direct=3 / weightb=1 / open_gop=0 / weightp=2 / keyint=250 / keyint_min=25 / scenecut=40 / intra_refresh=0 / rc_lookahead=50 / rc=abr / mbtree=1 / bitrate=11500 / ratetol=1.0 / qcomp=0.60 / qpmin=0 / qpmax=69 / qpstep=4 / vbv_maxrate=31250 / vbv_bufsize=31250 / nal_hrd=none / filler=0 / ip_ratio=1.40 / aq=1:1.00
Language : English
Default : Yes
Forced : No

Audio
ID : 2
Format : DTS
Format/Info : Digital Theater Systems
Mode : 16
Format settings, Endianness : Big
Codec ID : A_DTS
Duration : 1h 32mn
Bit rate mode : Constant
Bit rate : 1 509 Kbps
Channel(s) : 6 channels
Channel positions : Front: L C R, Side: L R, LFE
Sampling rate : 48.0 KHz
Frame rate : 93.750 fps (512 spf)
Bit depth : 16 bits
Compression mode : Lossy
Stream size : 1 002 MiB (12%)
Language : English
Default : Yes
Forced : No

Text
ID : 3
Format : UTF-8
Codec ID : S_TEXT/UTF8
Codec ID/Info : UTF-8 Plain Text
Language : English
Default : Yes
Forced : No

Menu
00:00:00.000 : en:Chapter 01
00:04:23.346 : en:Chapter 02
00:09:20.518 : en:Chapter 03
00:13:52.206 : en:Chapter 04
00:16:59.810 : en:Chapter 05
00:22:00.986 : en:Chapter 06
00:26:00.475 : en:Chapter 07
00:32:59.811 : en:Chapter 08
00:35:52.358 : en:Chapter 09
00:42:36.262 : en:Chapter 10
00:47:36.186 : en:Chapter 11
00:51:00.682 : en:Chapter 12
00:56:52.909 : en:Chapter 13
01:00:36.299 : en:Chapter 14
01:07:17.575 : en:Chapter 15
01:13:53.387 : en:Chapter 16
01:20:06.551 : en:Chapter 17
01:24:48.583 : en:Chapter 18
01:28:27.010 : en:Chapter 19
01:31:41.662 : en:Chapter 20





1 个附件 售价 大小 下载 时间

The.Living.Dead.At.The.Manchester.Morgue.1974.1080p.BluRay.x264.DTS-FGT.torrent 0 金币 85.50K 280 次 4天前

#1楼
发帖时间:2020-06-30 21:58:03   |   回复数:1
911degrees
隐世仙人♂
非常感谢,谢谢分享
3天前 #2楼
游客组