coor
一代宗师

[2010] [其他] [剧情] [BD-1080P] 追击巨怪 TrollHunter.2010.DUBBED.1080p.BluRay.x264.DTS-FGT 9.18GB

-->



◎译  名 追击巨怪 / The Troll Hunter / 巨怪猎人
◎片  名 Trolljegeren
◎年  代 2010
◎产  地 挪威
◎类  别 剧情 / 恐怖 / 奇幻
◎语  言 挪威语
◎上映日期 2010-10-29(挪威)
◎IMDb评分 7.0/10 from 66787 users
◎IMDb链接 https://www.imdb.com/title/tt1740707
◎豆瓣评分 6.1/10 from 1980 users
◎豆瓣链接 https://movie.douban.com/subject/5294298/
◎片  长 99分钟
◎导  演 André ?vredal
◎编  剧 André ?vredal
◎主  演 Otto Jespersen
      Glenn Erland Tosterud
      Johanna M?rck
      Tomas Alf Larsen
      Urmila Berg-Domaas
      Hans Morten Hansen
      Robert Stoltenberg
      Knut N?rum
      Eirik Bech
      Inge Erik Henjesand
      Tom J?rgensen
      Benedicte Aubert Ringnes
      Magne Skj?vesland
      Torunn L?demel Stokkeland
      Finn Norvald ?vredal


◎标  签 挪威 | 伪记录片 | 科幻 | 伪纪录片 | 冒险 | 挪威电影 | 悬疑 | 2010

◎简  介

  2008年的一天,挪威沃达大学托马斯(Glenn Erland Tosterud 饰)、乔安娜(Johanna M?rck 饰)组成的摄制组,前往偏远山区追踪猎熊人。在合法的猎人中间,他们口耳相传着一个名叫汉斯的男子,他被形容成为无法无天的刽子手。摄制组来到汉斯的所在的 拖车公园等候,并成功见到汉斯,然而对方并不予以配合。这群年轻人百折不挠,决定持续跟踪,结果在一座森林里见到难以置信的一幕:身高十几米长着三个脑袋的巨型怪物。汉斯将其称之为巨怪,是政府秘密进行的转基因产物,多以石头为生,害怕紫外线照射。
  虽然受到相关政府部门的阻挠,但是汉斯和年轻人们还是将巨怪存在的事实记录下来,公之于众……
Video
ID : 1
Format : AVC
Format/Info : Advanced Video Codec
Format profile : [email protected]
Format settings, CABAC : Yes
Format settings, ReFrames : 4 frames
Codec ID : V_MPEG4/ISO/AVC
Duration : 1h 43mn
Bit rate : 10.9 Mbps
Nominal bit rate : 11.5 Mbps
Width : 1 920 pixels
Height : 1 040 pixels
Display aspect ratio : 1.85:1
Frame rate mode : Constant
Frame rate : 23.976 (24000/1001) fps
Color space : YUV
Chroma subsampling : 4:2:0
Bit depth : 8 bits
Scan type : Progressive
Bits/(Pixel*Frame) : 0.228
Stream size : 7.91 GiB (86%)
Writing library : x264 core 148 r2694 3b70645
Encoding settings : cabac=1 / ref=4 / deblock=1:-2:-2 / analyse=0x3:0x113 / me=umh / subme=7 / psy=1 / psy_rd=1.00:0.15 / mixed_ref=1 / me_range=16 / chroma_me=1 / trellis=1 / 8x8dct=1 / cqm=0 / deadzone=21,11 / fast_pskip=1 / chroma_qp_offset=-3 / threads=40 / lookahead_threads=3 / sliced_threads=0 / nr=0 / decimate=1 / interlaced=0 / bluray_compat=0 / constrained_intra=0 / bframes=3 / b_pyramid=2 / b_adapt=2 / b_bias=0 / direct=3 / weightb=1 / open_gop=0 / weightp=2 / keyint=250 / keyint_min=25 / scenecut=40 / intra_refresh=0 / rc_lookahead=50 / rc=abr / mbtree=1 / bitrate=11500 / ratetol=1.0 / qcomp=0.60 / qpmin=0 / qpmax=69 / qpstep=4 / vbv_maxrate=31250 / vbv_bufsize=31250 / nal_hrd=none / filler=0 / ip_ratio=1.40 / aq=1:1.00
Language : English
Default : Yes
Forced : No

Audio
ID : 2
Format : DTS
Format/Info : Digital Theater Systems
Mode : 16
Format settings, Endianness : Big
Codec ID : A_DTS
Duration : 1h 43mn
Bit rate mode : Constant
Bit rate : 1 509 Kbps
Channel(s) : 6 channels
Channel positions : Front: L C R, Side: L R, LFE
Sampling rate : 48.0 KHz
Frame rate : 93.750 fps (512 spf)
Bit depth : 24 bits
Compression mode : Lossy
Stream size : 1.09 GiB (12%)
Language : English
Default : Yes
Forced : No

Text
ID : 3
Format : UTF-8
Codec ID : S_TEXT/UTF8
Codec ID/Info : UTF-8 Plain Text
Language : English
Default : Yes
Forced : No

Menu
00:00:00.000 : en:00:00:00.000
00:10:50.775 : en:00:10:50.775
00:20:31.063 : en:00:20:31.063
00:31:23.673 : en:00:31:23.673
00:40:55.453 : en:00:40:55.453
00:52:24.141 : en:00:52:24.141
01:02:40.173 : en:01:02:40.173
01:13:07.216 : en:01:13:07.216
01:23:19.703 : en:01:23:19.703
01:28:27.219 : en:01:28:27.219
01:34:54.022 : en:01:34:54.022
01:40:24.268 : en:01:40:24.268





1 个附件 售价 大小 下载 时间

TrollHunter.2010.DUBBED.1080p.BluRay.x264.DTS-FGT.torrent 0 金币 92.42K 245 次 4天前

#1楼
发帖时间:2020-06-30 22:19:12   |   回复数:0
游客组