q3r3
武林高手

[2016] [其他] [其他] [BD-1080P] 女猎鹰人/金雕女猎人 The.Eagle.Huntress.2016.LIMITED.1080p.BluRay.x264-USURY 6.56GB

-->

帖子完整标题:女猎鹰人/金雕女猎人 The.Eagle.Huntress.2016.LIMITED.1080p.BluRay.x264-USURY 6.56GB



◎译  名 女猎鹰人 / 金雕女猎人
◎片  名 The Eagle Huntress
◎年  代 2016
◎产  地 英国 / 蒙古 / 美国
◎类  别 纪录片 / 冒险 / 运动
◎语  言 哈萨克语
◎上映日期 2016-01-24(圣丹斯电影节) / 2016-12-16(英国)
◎IMDb评分 7.5/10 from 3388 users
◎IMDb链接 https://www.imdb.com/title/tt3882074
◎豆瓣评分 8.2/10 from 1842 users
◎豆瓣链接 https://movie.douban.com/subject/26681655/
◎片  长 87分钟
◎导  演 奥托·贝尔 Otto Bell
◎主  演 黛西·雷德利 Daisy Ridley
      Aisholpan Nurgaiv
      Rys Nurgaiv


◎标  签 纪录片 | 蒙古 | 女性 | 成长 | 英国 | 2016 | 励志 | 文化

◎简  介

  纪录片讲述了生活在蒙古西北部阿尔泰山区的13岁小女孩Aisholpan,打破沿袭了几百年的传男不传女的风俗,跟随父亲学习猎鹰,并成为地区"猎鹰节大赛"首位女性参赛者的经历。
  Thirteen-year-old Aisholpan trains to become the first female in twelve generations of her Kazakh family to become an eagle huntress.

◎获奖情况

  第70届英国电影学院奖(2017)
  电影奖 最佳纪录片(提名) Stacey Reiss / 奥托·贝尔

  第69届美国导演工会奖(2017)
  最佳纪录片导演(提名) 奥托·贝尔

  第28届美国制片人工会奖(2017)
  最佳纪录片制片人奖(提名)

  第88届美国国家评论协会奖(2016)
  五佳纪录片(提名)

  第21届金卫星奖(2017)
  电影部门 最佳纪录片(提名)

  第37届伦敦影评人协会奖(2017)
  年度纪录片(提名)

Video
ID : 1
Format : AVC
Format/Info : Advanced Video Codec
Format profile : [email protected]
Format settings : CABAC / 4 Ref Frames
Format settings, CABAC : Yes
Format settings, Reference frames : 4 frames
Codec ID : V_MPEG4/ISO/AVC
Duration : 1 h 27 min
Bit rate : 9 235 kb/s
Width : 1 920 pixels
Height : 1 040 pixels
Display aspect ratio : 1.85:1
Frame rate mode : Constant
Frame rate : 23.976 (24000/1001/189150) FPS
Color space : YUV
Chroma subsampling : 4:2:0
Bit depth : 8 bits
Scan type : Progressive
Bits/(Pixel*Frame) : 0.193
Stream size : 5.63 GiB (86%)
Writing library : x264 core 148 r2744 b97ae06
Encoding settings : cabac=1 / ref=4 / deblock=1:0:0 / analyse=0x3:0x133 / me=umh / subme=9 / psy=1 / psy_rd=1.00:0.00 / mixed_ref=1 / me_range=16 / chroma_me=1 / trellis=2 / 8x8dct=1 / cqm=0 / deadzone=21,11 / fast_pskip=0 / chroma_qp_offset=-2 / threads=24 / lookahead_threads=2 / sliced_threads=0 / nr=0 / decimate=1 / interlaced=0 / bluray_compat=0 / constrained_intra=0 / bframes=3 / b_pyramid=2 / b_adapt=1 / b_bias=0 / direct=3 / weightb=1 / open_gop=0 / weightp=2 / keyint=250 / keyint_min=23 / scenecut=40 / intra_refresh=0 / rc_lookahead=50 / rc=2pass / mbtree=1 / bitrate=9235 / ratetol=1.0 / qcomp=0.60 / qpmin=0 / qpmax=69 / qpstep=4 / cplxblur=20.0 / qblur=0.5 / ip_ratio=1.40 / aq=1:1.00
Language : English
Default : Yes
Forced : No

Audio
ID : 2
Format : DTS
Format/Info : Digital Theater Systems
Codec ID : A_DTS
Duration : 1 h 27 min
Bit rate mode : Constant
Bit rate : 1 509 kb/s
Channel(s) : 6 channels
Channel layout : C L R Ls Rs LFE
Sampling rate : 48.0 kHz
Frame rate : 93.750 FPS (512 SPF)
Bit depth : 24 bits
Compression mode : Lossy
Stream size : 943 MiB (14%)
Language : Kazakh
Default : Yes
Forced : No

Text #1
ID : 3
Format : UTF-8
Codec ID : S_TEXT/UTF8
Codec ID/Info : UTF-8 Plain Text
Duration : 1 h 24 min
Bit rate : 34 b/s
Count of elements : 701
Stream size : 21.4 KiB (0%)
Title : forced
Language : English
Default : Yes
Forced : Yes

Text #2
ID : 4
Format : UTF-8
Codec ID : S_TEXT/UTF8
Codec ID/Info : UTF-8 Plain Text
Duration : 1 h 27 min
Bit rate : 38 b/s
Count of elements : 761
Stream size : 24.8 KiB (0%)
Title : English
Language : English
Default : No
Forced : No

Text #3
ID : 5
Format : UTF-8
Codec ID : S_TEXT/UTF8
Codec ID/Info : UTF-8 Plain Text
Duration : 1 h 27 min
Bit rate : 54 b/s
Count of elements : 1116
Stream size : 34.7 KiB (0%)
Title : SDH
Language : English
Default : No
Forced : No

Menu
00:00:00.000 : en:00:00:00.000
00:05:15.815 : en:00:05:15.815
00:10:21.454 : en:00:10:21.454
00:15:30.054 : en:00:15:30.054
00:20:00.241 : en:00:20:00.241
00:26:51.485 : en:00:26:51.485
00:31:09.659 : en:00:31:09.659
00:36:36.403 : en:00:36:36.403
00:42:40.933 : en:00:42:40.933
00:47:24.842 : en:00:47:24.842
00:52:43.327 : en:00:52:43.327
00:58:20.455 : en:00:58:20.455
01:03:58.043 : en:01:03:58.043
01:09:25.953 : en:01:09:25.953
01:14:15.034 : en:01:14:15.034
01:21:25.172 : en:01:21:25.172





1 个附件 售价 大小 下载 时间

The.Eagle.Huntress.2016.LIMITED.1080p.BluRay.x264-USURY.zip 0 金币 131.85K 378 次 3天前

#1楼
发帖时间:2020-08-02 09:23:45   |   回复数:0
游客组