q3r3
一派掌门

[更 早] [其他] [其他] [BD-1080P] 午夜凶铃(美版)/七夜冤灵 The.Ring.2002.1080p.BluRay.X264-AMIABLE 7.94GB

-->

帖子完整标题:午夜凶铃(美版)/七夜冤灵 The.Ring.2002.1080p.BluRay.X264-AMIABLE 7.94GB



◎译  名 午夜凶铃(美版)/七夜冤灵(港)/七夜怪谈西洋篇(台)/美版午夜凶铃
◎片  名 The Ring
◎年  代 2002
◎产  地 美国,日本
◎类  别 悬疑 / 恐怖
◎语  言 英语
◎上映日期 2002-11-14
◎IMDb评分 7.1/10 from 315453 users
◎IMDb链接 https://www.imdb.com/title/tt0298130/
◎豆瓣评分 6.4/10 from 12386 users
◎豆瓣链接 https://movie.douban.com/subject/1305419/
◎片  长 115 分钟
◎导  演 戈尔·维宾斯基 Gore Verbinski
◎编  剧 伊伦·克鲁格 Ehren Kruger / 高桥洋 Hiroshi Takahashi / 铃木光司 K?ji Suzuki
◎主  演 娜奥米·沃茨 Naomi Watts
      马丁·亨德森 Martin Henderson
      宝蕾·佩雷特 Pauley Perrette
      黛维·切斯 Daveigh Chase
      布莱恩·考克斯 Brian Cox
      Art Frankel
      萨拉·茹 Sara Rue
      艾伦·布卢门菲尔德 Alan Blumenfeld
      Billy Lloyd
      Tess Hall
      亚当·布罗迪 Adam Brody
      Guy Richardson
      迈克尔·斯邦德 Michael Spound
      琳赛·福斯特 Lindsay Frost
      珊农·克奇兰 Shannon Cochran
      基思·坎贝尔 Keith Campbell
      Chuck Hicks
      大卫·多尔夫曼 David Dorfman
      简·亚历山大 Jane Alexander
      萨莎·巴瑞斯 Sasha Barrese
      爱波·塔布琳 Amber Tamblyn
      Maura McNamara
      桑德拉·蒂朋 Sandra Thigpen
      Rachael Bella

◎标  签 恐怖 | 美国 | 惊悚 | 美国电影 | 2002 | 翻拍 | 恐怖电影 | 恐怖片

◎简  介

  坊间流传着一个恐怖的传说,它和一盒神秘的录像带有关,传说中,凡是看过这盘录像带的人,会在七天之后死亡。理性至上的女记者凯勒(娜奥米·沃茨 Naomi Watts 饰)只将此当成是一个玩笑,可侄女凯蒂(爱波·塔布琳 Amber Tamblyn 饰)的死却让她的信仰产生了动摇。凯勒的姐姐告诉凯勒,凯蒂曾和三个同学一起看过一盘诡异的录像带,而这三位同学无一例外都死于了非命。
  
  凯勒决定着手调查此事,她找到了凯蒂曾经看过的录像带并看了录像带中的内容,之后,一个神秘的电话预示了凯勒死期已近。想要活命,凯勒就必须在七天之内找到录像带诅咒的真相,时间紧迫,凯勒最终能够成功脱险吗?

Video
ID : 1
Format : AVC
Format/Info : Advanced Video Codec
Format profile : [email protected]
Format settings : CABAC / 4 Ref Frames
Format settings, CABAC : Yes
Format settings, Reference frames : 4 frames
Codec ID : V_MPEG4/ISO/AVC
Duration : 1 h 55 min
Bit rate : 8 355 kb/s
Width : 1 920 pixels
Height : 1 040 pixels
Display aspect ratio : 1.85:1
Frame rate mode : Constant
Frame rate : 23.976 (24000/1001/189150) FPS
Color space : YUV
Chroma subsampling : 4:2:0
Bit depth : 8 bits
Scan type : Progressive
Bits/(Pixel*Frame) : 0.175
Stream size : 6.57 GiB (83%)
Writing library : x264 core 122 r2184 5c85e0a
Encoding settings : cabac=1 / ref=4 / deblock=1:0:0 / analyse=0x3:0x113 / me=umh / subme=8 / psy=1 / psy_rd=1.00:0.00 / mixed_ref=1 / me_range=16 / chroma_me=1 / trellis=1 / 8x8dct=1 / cqm=0 / deadzone=21,11 / fast_pskip=1 / chroma_qp_offset=-2 / threads=12 / sliced_threads=0 / nr=0 / decimate=1 / interlaced=0 / bluray_compat=0 / constrained_intra=0 / bframes=3 / b_pyramid=2 / b_adapt=2 / b_bias=0 / direct=3 / weightb=1 / open_gop=0 / weightp=2 / keyint=240 / keyint_min=24 / scenecut=40 / intra_refresh=0 / rc_lookahead=50 / rc=2pass / mbtree=1 / bitrate=8355 / ratetol=1.0 / qcomp=0.60 / qpmin=0 / qpmax=69 / qpstep=4 / cplxblur=20.0 / qblur=0.5 / ip_ratio=1.40 / aq=1:1.00
Language : English
Default : Yes
Forced : No

Audio
ID : 2
Format : DTS
Format/Info : Digital Theater Systems
Codec ID : A_DTS
Duration : 1 h 55 min
Bit rate mode : Constant
Bit rate : 1 509 kb/s
Channel(s) : 6 channels
Channel layout : C L R Ls Rs LFE
Sampling rate : 48.0 kHz
Frame rate : 93.750 FPS (512 SPF)
Bit depth : 24 bits
Compression mode : Lossy
Stream size : 1.22 GiB (15%)
Language : English
Default : Yes
Forced : No

Text
ID : 3
Format : UTF-8
Codec ID : S_TEXT/UTF8
Codec ID/Info : UTF-8 Plain Text
Language : English
Default : No
Forced : No

Menu
00:00:00.000 : en:00:00:00.000
00:07:32.911 : en:00:07:32.911
00:12:39.175 : en:00:12:39.175
00:15:36.561 : en:00:15:36.561
00:21:54.939 : en:00:21:54.939
00:23:42.504 : en:00:23:42.504
00:26:47.606 : en:00:26:47.606
00:32:03.588 : en:00:32:03.588
00:37:14.107 : en:00:37:14.107
00:39:21.859 : en:00:39:21.859
00:42:32.341 : en:00:42:32.341
00:47:26.844 : en:00:47:26.844
00:49:19.373 : en:00:49:19.373
00:54:37.107 : en:00:54:37.107
00:58:46.106 : en:00:58:46.106
01:00:55.026 : en:01:00:55.026
01:08:55.590 : en:01:08:55.590
01:13:47.381 : en:01:13:47.381
01:20:35.998 : en:01:20:35.998
01:23:45.395 : en:01:23:45.395
01:38:01.876 : en:01:38:01.876
01:44:13.581 : en:01:44:13.581
01:47:06.420 : en:01:47:06.420





1 个附件 售价 大小 下载 时间

The.Ring.2002.1080p.BluRay.X264-AMIABLE.zip 0 金币 80.89K 161 次 4天前

#1楼
发帖时间:2020-09-16 22:50:08   |   回复数:1
liyouchai
隐世仙人♂
谢谢楼主分享资源
4天前 #2楼
游客组