travismk
一代宗师

[更 早] [其他] [剧情] [WEB-1080P] 迷惑 Mesmerized.1985.1080p.AMZN.WEBRip.DDP2.0.x264-PLiSSKEN 6.24GB

-->

帖子完整标题:迷惑 Mesmerized.1985.1080p.AMZN.WEBRip.DDP2.0.x264-PLiSSKEN 6.24GB



◎译  名 迷惑/My Letter to George/爱情陷阱/给乔治的信/迷幻孽缘/黑色婚礼
◎片  名 Mesmerized
◎年  代 1985
◎产  地 澳大利亚,新西兰,英国
◎类  别 剧情
◎语  言 英语
◎上映日期 
◎豆瓣评分 /10 from 0 users
◎豆瓣链接 https://movie.douban.com/subject/1297298/
◎片  长 94 分钟
◎导  演 麦克尔·拉夫林 Michael Laughlin
◎编  剧 杰兹·斯科利莫夫斯基 Jerzy Skolimowski / 麦克尔·拉夫林 Michael Laughlin
◎主  演 朱迪·福斯特 Jodie Foster
      约翰·利思戈 John Lithgow
      哈里·安德鲁斯 Harry Andrews
      莎拉·皮尔斯 Sarah Peirse
      Don Selwyn Don Selwyn
      Beryl Te Wiata Beryl Te Wiata
      丹·肖尔 Dan Shor
      迈克尔·墨菲 Michael Murphy
      雷格·埃文斯 Reg Evans
      David Cameron David Cameron
      乔纳森·哈迪 Jonathan Hardy
      David Baxter David Baxter

◎标  签 JodieFoster | 澳大利亚电影 | 澳大利亚 | 朱迪·福斯特 | 女性 | 欧美 | 英语 | 美国

◎简  介

  茱蒂.福斯特扮演一名无父无母的少女,邂逅一名年纪比她大很多的男人,其后更下嫁给他,不料,最后她却被控谋杀亲夫。

Video
ID : 1
Format : AVC
Format/Info : Advanced Video Codec
Format profile : [email protected]
Format settings : CABAC / 4 Ref Frames
Format settings, CABAC : Yes
Format settings, Reference frames : 4 frames
Codec ID : V_MPEG4/ISO/AVC
Duration : 1 h 29 min
Bit rate mode : Constant
Bit rate : 10 000 kb/s
Width : 1 920 pixels
Height : 816 pixels
Display aspect ratio : 2.35:1
Frame rate mode : Constant
Frame rate : 23.976 (24000/1001/189150) FPS
Color space : YUV
Chroma subsampling : 4:2:0
Bit depth : 8 bits
Scan type : Progressive
Bits/(Pixel*Frame) : 0.266
Stream size : 6.10 GiB (98%)
Default : Yes
Forced : No
Color range : Limited
Color primaries : BT.709
Transfer characteristics : BT.709
Matrix coefficients : BT.709

Audio
ID : 2
Format : E-AC-3
Format/Info : Enhanced AC-3
Commercial name : Dolby Digital Plus
Codec ID : A_EAC3
Duration : 1 h 29 min
Bit rate mode : Constant
Bit rate : 224 kb/s
Channel(s) : 2 channels
Channel layout : L R
Sampling rate : 48.0 kHz
Frame rate : 31.250 FPS (1536 SPF)
Compression mode : Lossy
Stream size : 144 MiB (2%)
Language : English
Service kind : Complete Main
Default : Yes
Forced : No

Text
ID : 3
Format : UTF-8
Codec ID : S_TEXT/UTF8
Codec ID/Info : UTF-8 Plain Text
Duration : 1 h 26 min
Bit rate : 49 b/s
Count of elements : 1198
Stream size : 31.5 KiB (0%)
Title : SDH
Language : English
Default : No
Forced : No





1 个附件 售价 大小 下载 时间

Mesmerized.1985.1080p.AMZN.WEBRip.DDP2.0.x264-PLiSSKEN.torrent 0 金币 16.25K 490 次 1月前

#1楼
发帖时间:2021-09-18 23:40:03   |   回复数:1
liyouchai
隐世仙人♂
谢谢楼主分享资源
1月前 #2楼
游客组