squallzhao
一代宗师

[更 早] [其他] [剧情] [BD-1080P] 八百壯士 Eight.Hundred.Heroes.1976.1080p.BluRay.x264-BiPOLAR 12.38GB

-->

帖子完整标题:八百壯士 Eight.Hundred.Heroes.1976.1080p.BluRay.x264-BiPOLAR 12.38GB



◎译  名 八百壮士/Eight Hundred Heroes
◎片  名 八百壯士
◎年  代 1975
◎产  地 中国台湾
◎类  别 剧情 / 历史 / 战争
◎语  言 汉语普通话,日语,英语
◎上映日期 1976-07-10(中国台湾)
◎豆瓣评分 7.3/10 from 2914 users
◎豆瓣链接 https://movie.douban.com/subject/1876476/
◎片  长 113 分钟
◎导  演 丁善玺 Shan-hsi Ting
◎编  剧 丁善玺 Shan-hsi Ting
◎主  演 柯俊雄 Chun Hsiung Ko
      林青霞 Brigitte Lin
      张艾嘉 Sylvia Chang
      秦汉 Han Chin
      徐枫 Feng Hsu
      冯淬帆 Stanley Fung
      王宇 Yu Wang
      潘洁漪 Chieh Yi Pan
      山茅 Mao Shan
      郭新馨 Hsin Hsing Kuo
      柯佑民 Yu-min Ko
      金刚 Kang Chin
      戴良 Tai Liang
      安平 Ping An
      张冰玉 Ping-Yu Chang
      常枫 Feng Chang
      蔡弘 Hung Tsai
      曹健 Chien Tsao
      张翼 Yi Chang
      崔福生 Fu Sheng Tsui
      葛香亭 Hsiang Ting Ko
      薛汉 Han Hsieh
      苗天 Tien Miao
      房勉 Mien Fang
      葛小宝 Hsiao Po Ko
      陈鸿烈 Hung Lieh Chen
      张冲 Paul Chang Chung
      杨群 Peter Yang Kwan
      金汉 Han Chin
      黄家达 Carter Wong

◎标  签 台湾 | 抗日 | 战争 | 林青霞 | 台湾电影 | 历史 | 抗战 | 二战

◎简  介

  丁善玺编导的本片,继《英烈千秋》后,叙述1937年8月13日日寇侵略上海,中国88师524团团长谢晋元,为牵制日军,掩护中国军队后撤,率领480青年军官,号称八百壮士,固守四行仓库,达三个月之久。军人英勇杀敌,女童子军冒着生命危险给守军输送食物、医药,当牵制任务完成,守军越过苏州桥后撤。本片的格局手法与《英烈千秋》完全不同,只限于几成孤岛上海的苏州河畔的四行仓库,数百中国军人与包围的日军进行阵地战。导演根据史实,利用四行仓库周围有英法租界,苏州河对面又是国统区,苏州河两岸战争与和平不同环境造成的戏剧冲突,表现了爱国军队抗击侵略者英勇无畏的精神,和上海人民声援国民党守军的时代气氛。导演把握住双方冲突的因素,安排丛生的险象,利用国军在枪林弹雨下游过苏州河,民众都为军人担心的正反打镜头蒙太奇剪接手法,形成扣人心弦的场面,把剧情推向高潮。本事件曾于1938年搬上银幕,是默片,由阳翰笙编剧,应云卫导演,袁牧之、陈波儿主演,是抗战时期“大后方电影”中较为著名的一部,其中女童子军冒死为壮士们送国旗的细节,具有极为悲壮的感染力。影片在当时的大后方及香港极为轰动,而且在东南亚甚至西欧都得到热烈反响。

Video
ID : 1
Format : AVC
Format/Info : Advanced Video Codec
Format profile : [email protected]
Format settings : CABAC / 5 Ref Frames
Format settings, CABAC : Yes
Format settings, Reference frames : 5 frames
Codec ID : V_MPEG4/ISO/AVC
Duration : 1 h 55 min
Bit rate : 14.6 Mb/s
Width : 1 920 pixels
Height : 800 pixels
Display aspect ratio : 2.40:1
Frame rate mode : Constant
Frame rate : 24.000 FPS
Color space : YUV
Chroma subsampling : 4:2:0
Bit depth : 8 bits
Scan type : Progressive
Bits/(Pixel*Frame) : 0.395
Stream size : 11.8 GiB (95%)
Writing library : x264 core 164 r3065 ae03d92
Encoding settings : cabac=1 / ref=5 / deblock=1:-3:-3 / analyse=0x3:0x133 / me=umh / subme=10 / psy=1 / psy_rd=1.00:0.15 / mixed_ref=1 / me_range=24 / chroma_me=1 / trellis=2 / 8x8dct=1 / cqm=0 / deadzone=21,11 / fast_pskip=1 / chroma_qp_offset=-3 / threads=18 / lookahead_threads=3 / sliced_threads=0 / nr=0 / decimate=1 / interlaced=0 / bluray_compat=0 / constrained_intra=0 / bframes=8 / b_pyramid=2 / b_adapt=2 / b_bias=0 / direct=3 / weightb=1 / open_gop=0 / weightp=2 / keyint=250 / keyint_min=24 / scenecut=40 / intra_refresh=0 / rc_lookahead=60 / rc=crf / mbtree=1 / crf=17.0 / qcomp=0.60 / qpmin=0 / qpmax=69 / qpstep=4 / ip_ratio=1.40 / aq=3:0.50
Language : English
Default : Yes
Forced : No
Color range : Limited
Matrix coefficients : BT.709

Audio
ID : 2
Format : FLAC
Format/Info : Free Lossless Audio Codec
Codec ID : A_FLAC
Duration : 1 h 55 min
Bit rate mode : Variable
Bit rate : 701 kb/s
Channel(s) : 2 channels
Channel layout : L R
Sampling rate : 48.0 kHz
Frame rate : 11.719 FPS (4096 SPF)
Bit depth : 24 bits
Compression mode : Lossless
Stream size : 581 MiB (5%)
Title : Mandarin
Writing library : libFLAC 1.2.1 (UTC 2007-09-17)
Language : Chinese
Default : Yes
Forced : No

Text #1
ID : 3
Format : UTF-8
Codec ID : S_TEXT/UTF8
Codec ID/Info : UTF-8 Plain Text
Duration : 1 h 53 min
Bit rate : 37 b/s
Count of elements : 1073
Stream size : 31.1 KiB (0%)
Title : English
Language : English
Default : Yes
Forced : Yes

Text #2
ID : 4
Format : PGS
Muxing mode : zlib
Codec ID : S_HDMV/PGS
Codec ID/Info : Picture based subtitle format used on BDs/HD-DVDs
Duration : 1 h 53 min
Bit rate : 9 515 b/s
Count of elements : 2114
Stream size : 7.71 MiB (0%)
Title : English
Language : English
Default : No
Forced : No

Text #3
ID : 5
Format : UTF-8
Codec ID : S_TEXT/UTF8
Codec ID/Info : UTF-8 Plain Text
Duration : 1 h 53 min
Bit rate : 47 b/s
Count of elements : 1165
Stream size : 39.3 KiB (0%)
Title : German
Language : German
Default : No
Forced : No

Text #4
ID : 6
Format : PGS
Muxing mode : zlib
Codec ID : S_HDMV/PGS
Codec ID/Info : Picture based subtitle format used on BDs/HD-DVDs
Duration : 1 h 53 min
Bit rate : 11.6 kb/s
Count of elements : 2228
Stream size : 9.44 MiB (0%)
Title : German
Language : German
Default : No
Forced : No

Menu
00:00:00.000 : en:00:00:00.000
00:01:55.917 : en:00:01:55.917
00:08:09.833 : en:00:08:09.833
00:10:10.708 : en:00:10:10.708
00:16:15.625 : en:00:16:15.625
00:23:30.250 : en:00:23:30.250
00:32:29.333 : en:00:32:29.333
00:34:49.625 : en:00:34:49.625
00:37:37.042 : en:00:37:37.042
00:42:52.833 : en:00:42:52.833
00:50:20.458 : en:00:50:20.458
01:05:59.583 : en:01:05:59.583
01:11:19.167 : en:01:11:19.167
01:13:55.625 : en:01:13:55.625
01:19:54.917 : en:01:19:54.917
01:39:20.458 : en:01:39:20.458
01:51:59.083 : en:01:51:59.083





1 个附件 售价 大小 下载 时间

Eight.Hundred.Heroes.1976.1080p.BluRay.x264-BiPOLAR.torrent 0 金币 16.23K 1789 次 1月前

#1楼
发帖时间:2021-09-20 13:07:20   |   回复数:2
liyouchai
隐世仙人♂
谢谢楼主分享资源
1月前 #2楼
wybt
武林高手
感谢。抗战。
1月前 #3楼
游客组