as3722862
武林高手

[2019] [欧美] [科幻] [纯净版] [BT下载/网盘][终结者:黑暗命运][HD-MP4/5GB][英语官方中文字幕][[1080P/x265]]

-->



◎译  名 终结者:黑暗命运 / Terminator 6 / 未来战士:黑暗命运(港) / 终结者2019 / 终结者6 / 终结者6:黑暗命运 / 终结者6:黑暗宿命 / 魔鬼终结者:黑暗宿命(台)
◎片  名 Terminator: Dark Fate
◎年  代 2019
◎产  地 美国 / 中国大陆
◎类  别 动作 / 科幻 / 冒险
◎语  言 英语
◎上映日期 2019-10-23(法国) / 2019-11-01(美国/中国大陆)
◎IMDb评分  6.5/10 from 52213 users
◎IMDb链接  https://www.imdb.com/title/tt6450804
◎豆瓣评分 7.1/10 from 79843 users
◎豆瓣链接 https://movie.douban.com/subject/27109633/
◎片  长 128分钟
◎导  演 蒂姆·米勒 Tim Miller
◎编  剧 詹姆斯·卡梅隆 James Cameron / 查尔斯·H·伊格里 Charles H. Eglee / 乔什·弗莱德曼 Josh Friedman / 大卫·S·高耶 David S. Goyer / 贾斯汀·罗德斯 Justin Rhodes / 比利·雷 Billy Ray / 盖尔·安妮·赫德 Gale Anne Hurd
◎主  演 麦肯兹·戴维斯 Mackenzie Davis
       娜塔利娅·雷耶斯 Natalia Reyes
       琳达·汉密尔顿 Linda Hamilton
       阿诺·施瓦辛格 Arnold Schwarzenegger
       加布里埃尔·鲁纳 Gabriel Luna
       迪耶戈·博内塔 Diego Boneta
       恩里克·阿尔切 Enrique Arce
       特里斯坦·乌罗阿 Tristán Ulloa
       艾丽西娅·博拉切罗 Alicia Borrachero
       布雷特·阿扎尔 Brett Azar
       史蒂芬·克里 Steven Cree
       罗谢尔·尼尔 Rochelle Neil
       弗雷泽·杰姆斯 Fraser James
       克劳迪娅·特鲁希略 Claudia Trujillo
       比约恩·弗赖贝格 Björn Freiberg
       约翰·盖蒂尔 John Gettier
       彼得·奥蒙德 Peter Ormond
       Lorna Brown
       Peter Schueller


◎标  签 科幻 | 动作 | 美国 | 机器人 | 2019 | 情怀 | 冒险 | 剧情

◎简  介  

  《终结者2:审判日》发生的27年后,由于未来天网派来T-800成功杀死年幼的约翰,以致令未来产生变化,一个全新进化的液态金属终结者从未来派出,目的是追杀持有关键讯息的丹妮·拉莫斯、半生化人葛蕾丝和她的朋友。这使莎拉·康纳以及成功杀死约翰的T800终结者前来帮助她们一行人,以共同为了人类的未来而战。

◎获奖情况  

  第6届豆瓣电影年度榜单(2019)
  评分最高的科幻/动作片(提名)

 


Video

ID                          : 1

Format                      : HEVC

Format/Info                 : High Efficiency Video Coding

Format profile              : [email protected]@Main

Codec ID                    : hev1

Codec ID/Info               : High Efficiency Video Coding

Duration                    : 2 h 8 min

Bit rate                    : 4 960 kb/s

Width                       : 1 920 pixels

Height                      : 1 080 pixels

Display aspect ratio        : 16:9

Frame rate mode             : Constant

Frame rate                  : 23.976 (24000/1001) FPS

Color space                 : YUV

Chroma subsampling          : 4:2:0

Bit depth                   : 8 bits

Scan type                   : Progressive

Bits/(Pixel*Frame)          : 0.100

Stream size                 : 4.44 GiB (88%)

Writing library             : x265 2.8:[Windows][GCC 4.9.2][64 bit] 8bit

Encoding settings           : cpuid=1049583 / frame-threads=3 / wpp / no-pmode / no-pme / no-psnr / no-ssim / log-level=2 / input-csp=1 / input-res=1920x1080 / interlace=0 / total-frames=0 / level-idc=0 / high-tier=1 / uhd-bd=0 / ref=3 / no-allow-non-conformance / no-repeat-headers / annexb / no-aud / no-hrd / info / hash=0 / no-temporal-layers / open-gop / min-keyint=23 / keyint=250 / gop-lookahead=0 / bframes=4 / b-adapt=0 / b-pyramid / bframe-bias=0 / rc-lookahead=15 / lookahead-slices=6 / scenecut=40 / radl=0 / no-intra-refresh / ctu=64 / min-cu-size=8 / no-rect / no-amp / max-tu-size=32 / tu-inter-depth=1 / tu-intra-depth=1 / limit-tu=0 / rdoq-level=0 / dynamic-rd=0.00 / no-ssim-rd / signhide / no-tskip / nr-intra=0 / nr-inter=0 / no-constrained-intra / strong-intra-smoothing / max-merge=2 / limit-refs=3 / no-limit-modes / me=1 / subme=2 / merange=57 / temporal-mvp / weightp / no-weightb / no-analyze-src-pics / deblock=0:0 / sao / no-sao-non-deblock / rd=2 / no-early-skip / rskip / fast-intra / no-tskip-fast / no-cu-lossless / no-b-intra / no-splitrd-skip / rdpenalty=0 / psy-rd=2.00 / psy-rdoq=0.00 / no-rd-refine / no-lossless / cbqpoffs=0 / crqpoffs=0 / rc=abr / bitrate=5000 / qcomp=0.60 / qpstep=4 / stats-write=0 / stats-read=0 / ipratio=1.40 / pbratio=1.30 / aq-mode=1 / aq-strength=1.00 / cutree / zone-count=0 / no-strict-cbr / qg-size=32 / no-rc-grain / qpmax=69 / qpmin=0 / no-const-vbv / sar=1 / overscan=0 / videoformat=5 / range=0 / colorprim=2 / transfer=2 / colormatrix=2 / chromaloc=0 / display-window=0 / max-cll=0,0 / min-luma=0 / max-luma=255 / log2-max-poc-lsb=8 / vui-timing-info / vui-hrd-info / slices=1 / no-opt-qp-pps / no-opt-ref-list-length-pps / no-multi-pass-opt-rps / scenecut-bias=0.05 / no-opt-cu-delta-qp / no-aq-motion / no-hdr / no-hdr-opt / no-dhdr10-opt / no-idr-recovery-sei / analysis-reuse-level=5 / scale-factor=0 / refine-intra=0 / refine-inter=0 / refine-mv=0 / no-limit-sao / ctu-info=0 / no-lowpass-dct / refine-mv-type=0 / copy-pic=1 / max-ausize-factor=1.0 / no-dynamic-refine / no-single-sei

Codec configuration box     : hvcC


Audio

ID                          : 2

Format                      : E-AC-3

Format/Info                 : Enhanced AC-3

Commercial name             : Dolby Digital Plus

Codec ID                    : ec-3

Duration                    : 2 h 8 min

Bit rate mode               : Constant

Bit rate                    : 640 kb/s

Channel(s)                  : 6 channels

Channel layout              : L R C LFE Ls Rs

Sampling rate               : 48.0 kHz

Frame rate                  : 31.250 FPS (1536 SPF)

Compression mode            : Lossy

Stream size                 : 586 MiB (11%)

Service kind                : Complete Main

Default                     : Yes

Alternate group             : 1


ed2k://|file|[%E5%BE%AE%E4%BF%A1%E5%85%AC%E4%BC%97%E5%8F%B7%EF%BC%9A%E5%8C%86%E5%8C%86%E7%94%B5%E5%BD%B1]%E7%BB%88%E7%BB%93%E8%80%85%EF%BC%9A%E9%BB%91%E6%9A%97%E5%91%BD%E8%BF%90%20Terminator.Dark.Fate..2019.HD1080p.DDP5.1.x265.ENG.CHS.%E7%BA%AF%E5%87%80%E7%89%88.mp4|5387207508|E738D7EDFD40E2201B22ACA5D9F39807|h=AWQNEQRLLJBWQAI6OCIXUHPCOFIKTNF5|/


链接: https://pan.baidu.com/s/16l8BoPeFwDYCiJhWWzZVlA   提取码: 2b98 复制这段内容后打开百度网盘手机App,操作更方便哦


1 个附件 售价 大小 下载 时间

终结者:黑暗命运 Terminator.Dark.Fate..2019.HD1080p.DDP5.1.x265.ENG.CHS.纯净版.mp4.torrent 0 金币 107.57K 15649 次 6月前

#1楼
发帖时间:2020-01-15 08:31:45   |   回复数:9
ALLEN820213
隐世仙人♂
感谢楼主分享!!!
6月前 #2楼
ak147
一代宗师
感谢大大分享
6月前 #3楼
亚瑟王
一派掌门
感谢楼主
6月前 #4楼
sxyqlwb
小有名气
基本没速度
6月前 #5楼
hebhsj
武林高手
感谢楼主
6月前 #6楼
MGCNDD
一派掌门
感谢楼主的分享!
6月前 #7楼
99yy
一代宗师
感谢楼主分享!
6月前 #8楼
911degrees
隐世仙人♂
非常感谢,谢谢分享
6月前 #9楼
about456
一代宗师
谢谢搂主分享!
6月前 #10楼
游客组