baggiojin
小有名气

[2017] [欧美] [爱情] [4K-Remux] 爱在记忆消逝前.The.Leisure.Seeker.2017.2160p.BCORE.WEB-DL.x265.10bit.HDR.DTS-HD.MA.5.1-

-->

片  名:爱在记忆消逝前4k
电影分类:喜剧 爱情片 
国  家:法国 意大利 
年  代:2017年
分 辨 率:4K(3840x2160)
电影格式:MKV|REMUX 
画质标准:HDR 
音质编码:Dolby Digital Audio DTS-HD Master Audio 
电影声道:5.1声道 
帧数/FPS:23.976 帧
电影语言:英文原版 
资源大小:58.12 GB
导  演:保罗·维尔齐
豆瓣评分:8.2 分
中文字幕:-
剧情简介: 该片改编自Michael Zadoorian的同名小说,讲述了一对患重病的老夫妻开着老旧的房车从马塞诸塞州出发前往海明威的故居,在旅途中回顾人生的故事。
  约翰是一位文学教师和作家,海明威的死忠,尽管阿兹海默症已经让他的记忆越来越差,甚至会忘记妻子和儿女的名字,却依旧可以随口说出海明威的所有作品,《老人和海》更是他的钟爱。因为妻子艾拉患重病需要住院, 约翰就只能进入养老院,携手走过一辈子的二人面临永远分开的未来。于是,他们有了一个疯狂的决定,决心驾驶名叫“leisure seeker 求闲者”的房车,从马塞诸塞州一路南行,回顾70年代曾和孩子们一起度假的旅程,目的地是西锁岛key west 的海明威故居。

Video

ID : 1

Format : HEVC

Format/Info : High Efficiency Video Coding

Format profile : Main [email protected]@High

HDR format : SMPTE ST 2086, HDR10 compatible

Codec ID : V_MPEGH/ISO/HEVC

Duration : 1 h 52 min

Bit rate : 69.6 Mb/s

Width : 3 840 pixels

Height : 2 160 pixels

Display aspect ratio : 16:9

Frame rate mode : Constant

Frame rate : 23.976 (24000/1001) FPS

Color space : YUV

Chroma subsampling : 4:2:0 (Type 2)

Bit depth : 10 bits

Bits/(Pixel*Frame) : 0.350

Stream size : 54.5 GiB (94%)

Language : English

Default : Yes

Forced : No

Color range : Limited

Color primaries : BT.2020

Transfer characteristics : PQ

Matrix coefficients : BT.2020 non-constant

Mastering display color primaries : Display P3

Mastering display luminance : min: 0.0050 cd/m2, max: 4000 cd/m2

Maximum Content Light Level : 942 cd/m2

Maximum Frame-Average Light Level : 114 cd/m2


Audio #1

ID : 2

Format : DTS XLL

Format/Info : Digital Theater Systems

Commercial name : DTS-HD Master Audio

Codec ID : A_DTS

Duration : 1 h 52 min

Bit rate mode : Variable

Bit rate : 3 155 kb/s

Channel(s) : 6 channels

Channel layout : C L R Ls Rs LFE

Sampling rate : 48.0 kHz

Frame rate : 93.750 FPS (512 SPF)

Bit depth : 24 bits

Compression mode : Lossless

Delay relative to video : 5 ms

Stream size : 2.47 GiB (4%)

Title : DTS-HD MA 5.1

Language : English

Default : Yes

Forced : No


Audio #2

ID : 3

Format : DTS

Format/Info : Digital Theater Systems

Codec ID : A_DTS

Duration : 1 h 52 min

Bit rate mode : Constant

Bit rate : 768 kb/s

Channel(s) : 6 channels

Channel layout : C L R Ls Rs LFE

Sampling rate : 48.0 kHz

Frame rate : 93.750 FPS (512 SPF)

Bit depth : 24 bits

Compression mode : Lossy

Stream size : 616 MiB (1%)

Title : DTS 5.1

Language : English

Default : No

Forced : No


Audio #3

ID : 4

Format : AC-3

Format/Info : Audio Coding 3

Commercial name : Dolby Digital

Codec ID : A_AC3

Duration : 1 h 52 min

Bit rate mode : Constant

Bit rate : 640 kb/s

Channel(s) : 6 channels

Channel layout : L R C LFE Ls Rs

Sampling rate : 48.0 kHz

Frame rate : 31.250 FPS (1536 SPF)

Compression mode : Lossy

Stream size : 514 MiB (1%)

Title : DD 5.1

Language : English

Service kind : Complete Main

Default : No

Forced : No


Text

ID : 5

Format : UTF-8

Codec ID : S_TEXT/UTF8

Codec ID/Info : UTF-8 Plain Text

Duration : 1 h 48 min

Bit rate : 70 b/s

Count of elements : 1860

Stream size : 55.7 KiB (0%)

Title : English-SRT

Language : English

Default : Yes

Forced : No



1 个附件 售价 大小 下载 时间

爱在记忆消逝前.The.Leisure.Seeker.2017.2160p.BCORE.WEB-DL.x265.10bit.HDR.DTS-HD.MA.5.1-SWTYBLZ.torrent 0 金币 145.97K 1442 次 5月前

#1楼
发帖时间:2021-05-05 15:36:22   |   回复数:2
jokingcheung
一代宗师
谢谢分享
5月前 #2楼
appletu
小有名气
收下了,謝謝大大的分享。
5月前 #3楼
游客组