baggiojin
小有名气

[更 早] [泰国] [爱情] [4K-Remux] 纯真年代.The.Age.of.Innocence.1993.2160p.WEB-DL.x265.10bit.SDR.DTS-HD.MA.5.1-SWTYBLZ

-->

片  名:纯真年代4k
电影分类:剧情 爱情片 
国  家:美国 
年  代:90年代
分 辨 率:4K(3840x2160)
电影格式:MKV|REMUX 
画质标准:SDR 
音质编码:DTS-HD Master Audio 
电影声道:5.1声道 
帧数/FPS:23.976 帧
电影语言:英文原版 
资源大小:24.66 GB
导  演:马丁·斯科塞斯
豆瓣评分:8.2 分
中文字幕:-
剧情简介:19世纪的纽约,上流阶层的人士有着一套自己的判断标准和生活规则,要求体面、得体。年轻律师纽伦(Daniel Day-Lewis 饰)也不例外,他将与门当户对的千金小姐梅(Winona Ryder 饰)订婚。然而在订婚前夕,他与梅的表姐、刚刚离婚自欧洲回到纽约的艾伦(米歇 尔·菲佛 Michelle Pfeiffer 饰)重逢,二人 一见如故,情愫顿生。然而艾伦的大胆行为和追求自我的作风是不被那个上流社会所接纳和允许的,在大家的眼中她是一个讨人厌的怪物。纽伦却意识到这种性格的可贵,并且被这种性格所折服,如果不能和所爱的人在一起,如果一生不是为自己而是为礼数为体面而活,人生将是多么的空虚和苍白。纽伦想和艾伦私奔,然而梅却怀孕了。虽然想追求属于自己的幸福,但是却同样不想伤害他人的这对爱人,最终选择了放手。纽伦和梅结婚了,脾气和顺的梅一直处于无辜的中心。然而直到梅的死去,他们才看见了事物的另一面……

Video

ID : 1

Format : HEVC

Format/Info : High Efficiency Video Coding

Format profile : Main [email protected]@High

Codec ID : V_MPEGH/ISO/HEVC

Duration : 2 h 18 min

Bit rate : 21.0 Mb/s

Width : 3 840 pixels

Height : 2 160 pixels

Display aspect ratio : 16:9

Frame rate mode : Constant

Frame rate : 23.976 (24000/1001) FPS

Color space : YUV

Chroma subsampling : 4:2:0

Bit depth : 10 bits

Bits/(Pixel*Frame) : 0.105

Stream size : 20.3 GiB (82%)

Language : English

Default : Yes

Forced : No

Color range : Full

Color primaries : BT.709

Transfer characteristics : BT.709

Matrix coefficients : BT.709


Audio #1

ID : 2

ID in the original source medium : 4352 (0x1100)

Format : DTS XLL

Format/Info : Digital Theater Systems

Commercial name : DTS-HD Master Audio

Codec ID : A_DTS

Duration : 2 h 18 min

Bit rate mode : Variable

Bit rate : 3 852 kb/s

Channel(s) : 6 channels

Channel layout : C L R Ls Rs LFE

Sampling rate : 48.0 kHz

Frame rate : 93.750 FPS (512 SPF)

Bit depth : 24 bits

Compression mode : Lossless

Delay relative to video : 2 ms

Stream size : 3.72 GiB (15%)

Title : DTS-HD MA 5.1

Language : English

Default : Yes

Forced : No

Original source medium : Blu-ray


Audio #2

ID : 3

Format : AC-3

Format/Info : Audio Coding 3

Commercial name : Dolby Digital

Codec ID : A_AC3

Duration : 2 h 18 min

Bit rate mode : Constant

Bit rate : 640 kb/s

Channel(s) : 6 channels

Channel layout : L R C LFE Ls Rs

Sampling rate : 48.0 kHz

Frame rate : 31.250 FPS (1536 SPF)

Compression mode : Lossy

Stream size : 634 MiB (3%)

Title : DD 5.1

Language : English

Service kind : Complete Main

Default : No

Forced : No


Text

ID : 4

Format : UTF-8

Codec ID : S_TEXT/UTF8

Codec ID/Info : UTF-8 Plain Text

Duration : 2 h 8 min

Bit rate : 87 b/s

Count of elements : 1788

Stream size : 82.1 KiB (0%)

Title : English-SRT

Language : English

Default : Yes

Forced : No



1 个附件 售价 大小 下载 时间

纯真年代.The.Age.of.Innocence.1993.2160p.WEB-DL.x265.10bit.SDR.DTS-HD.MA.5.1-SWTYBLZ.torrent 0 金币 62.32K 2597 次 5月前

#1楼
发帖时间:2021-05-05 15:40:15   |   回复数:1
jokingcheung
一代宗师
谢谢分享
5月前 #2楼
游客组