fg603603
一代宗师

[更 早] [其他] [剧情] [BD-1080P] 骗子 Il.Bidone.1955.REMASTERED.1080p.BluRay.x264-USURY 17.15GB

-->

帖子完整标题:骗子 Il.Bidone.1955.REMASTERED.1080p.BluRay.x264-USURY 17.15GB



◎译  名 骗子/IL bidone/The Swindle/The Swindlers
◎片  名 Il bidone
◎年  代 1955
◎产  地 意大利,法国
◎类  别 剧情 / 喜剧
◎语  言 意大利语
◎上映日期 1955-10-07(意大利)
◎豆瓣评分 8.1/10 from 6158 users
◎豆瓣链接 https://movie.douban.com/subject/1303571/
◎片  长 113分钟
◎导  演 费德里科·费里尼 Federico Fellini
◎编  剧 费德里科·费里尼 Federico Fellini / 恩尼奥·弗拉亚诺 Ennio Flaiano / 图里奥·皮内利 Tullio Pinelli
◎主  演 布罗德里克·克劳福德 Broderick Crawford
      朱丽叶塔·马西纳 Giulietta Masina
      理查德·贝斯哈特 Richard Basehart
      佛朗哥·法布里齐 Franco Fabrizi
      Sue Ellen Blake Sue Ellen Blake
      Irene Cefaro Irene Cefaro
      洛雷拉·德卢卡 Lorella De Luca
      里卡尔多·加罗内 Riccardo Garrone
      Xenia Valderi Xenia Valderi
      Maria Zanoli Maria Zanoli
      埃托雷·贝维拉夸 Ettore Bevilacqua
      Gino Buzzanca Gino Buzzanca
      Ada Colangeli Ada Colangeli

◎标  签 意大利 | 费里尼 | 费德里科·费里尼 | 1955 | 意大利电影 | 黑白 | FedericoFellini | 1950s

◎简  介

  奥古斯特带领的三个骗子化装成传教士到处行骗,屡屡得手。一次他在街头偶遇自己天真烂漫的女儿,心里不禁有所顿悟,但却被人当场认出是骗子,并在女儿面前给人逮送到警局。出狱后的奥古斯特重操旧业,但在为筹集女儿学费的一次行骗中,他想独吞财物而被同伙痛殴,最终死在山崖边。

◎获奖情况

  第16届威尼斯电影节 ?(1955)
  主竞赛单元金狮奖(提名) 费德里科·费里尼

Video
ID : 1
Format : AVC
Format/Info : Advanced Video Codec
Format profile : [email protected]
Format settings : CABAC / 5 Ref Frames
Format settings, CABAC : Yes
Format settings, Reference frames : 5 frames
Codec ID : V_MPEG4/ISO/AVC
Duration : 1 h 53 min
Bit rate : 21.0 Mb/s
Width : 1 478 pixels
Height : 1 080 pixels
Display aspect ratio : 4:3
Frame rate mode : Constant
Frame rate : 23.976 (24000/1001/189150) FPS
Color space : YUV
Chroma subsampling : 4:2:0
Bit depth : 8 bits
Scan type : Progressive
Bits/(Pixel*Frame) : 0.548
Stream size : 16.7 GiB (97%)
Writing library : x264 core 164 r3075 66a5bc1
Encoding settings : cabac=1 / ref=5 / deblock=1:-3:-3 / analyse=0x3:0x133 / me=umh / subme=10 / psy=1 / psy_rd=1.00:0.15 / mixed_ref=1 / me_range=24 / chroma_me=1 / trellis=2 / 8x8dct=1 / cqm=0 / deadzone=21,11 / fast_pskip=1 / chroma_qp_offset=-3 / threads=18 / lookahead_threads=3 / sliced_threads=0 / nr=0 / decimate=1 / interlaced=0 / bluray_compat=0 / constrained_intra=0 / bframes=8 / b_pyramid=2 / b_adapt=2 / b_bias=0 / direct=3 / weightb=1 / open_gop=0 / weightp=2 / keyint=250 / keyint_min=23 / scenecut=40 / intra_refresh=0 / rc_lookahead=60 / rc=crf / mbtree=1 / crf=18.0 / qcomp=0.60 / qpmin=0 / qpmax=69 / qpstep=4 / ip_ratio=1.40 / aq=3:0.50
Language : English
Default : Yes
Forced : No

Audio #1
ID : 2
Format : FLAC
Format/Info : Free Lossless Audio Codec
Codec ID : A_FLAC
Duration : 1 h 53 min
Bit rate mode : Variable
Bit rate : 527 kb/s
Channel(s) : 1 channel
Channel layout : C
Sampling rate : 48.0 kHz
Frame rate : 11.719 FPS (4096 SPF)
Bit depth : 24 bits
Compression mode : Lossless
Stream size : 429 MiB (2%)
Writing library : libFLAC 1.2.1 (UTC 2007-09-17)
Language : Italian
Default : Yes
Forced : No

Audio #2
ID : 3
Format : AAC LC
Format/Info : Advanced Audio Codec Low Complexity
Codec ID : A_AAC-2
Duration : 1 h 53 min
Bit rate : 64.1 kb/s
Channel(s) : 1 channel
Channel layout : C
Sampling rate : 48.0 kHz
Frame rate : 46.875 FPS (1024 SPF)
Compression mode : Lossy
Delay relative to video : 9 ms
Stream size : 52.2 MiB (0%)
Title : English Commentary by Frank Burke
Language : English
Default : No
Forced : No

Text #1
ID : 4
Format : UTF-8
Codec ID : S_TEXT/UTF8
Codec ID/Info : UTF-8 Plain Text
Duration : 1 h 52 min
Bit rate : 58 b/s
Count of elements : 1417
Stream size : 47.9 KiB (0%)
Title : English
Language : English
Default : Yes
Forced : Yes

Text #2
ID : 5
Format : PGS
Muxing mode : zlib
Codec ID : S_HDMV/PGS
Codec ID/Info : Picture based subtitle format used on BDs/HD-DVDs
Duration : 1 h 52 min
Bit rate : 8 431 b/s
Count of elements : 2834
Stream size : 6.78 MiB (0%)
Title : English
Language : English
Default : No
Forced : No

Menu
00:00:00.000 : en:00:00:00.000
00:03:05.519 : en:00:03:05.519
00:06:28.930 : en:00:06:28.930
00:11:32.066 : en:00:11:32.066
00:14:15.563 : en:00:14:15.563
00:19:47.853 : en:00:19:47.853
00:23:41.337 : en:00:23:41.337
00:30:05.137 : en:00:30:05.137
00:31:32.974 : en:00:31:32.974
00:37:25.702 : en:00:37:25.702
00:42:30.381 : en:00:42:30.381
00:46:21.070 : en:00:46:21.070
00:52:13.380 : en:00:52:13.380
00:58:13.073 : en:00:58:13.073
01:03:21.631 : en:01:03:21.631
01:06:52.342 : en:01:06:52.342
01:10:45.992 : en:01:10:45.992
01:20:50.846 : en:01:20:50.846
01:30:07.944 : en:01:30:07.944
01:39:47.190 : en:01:39:47.190
01:48:44.977 : en:01:48:44.977





1 个附件 售价 大小 下载 时间

Il.Bidone.1955.REMASTERED.1080p.BluRay.x264-USURY.torrent 0 金币 22.26K 651 次 5天前

#1楼
发帖时间:2021-10-13 20:37:36   |   回复数:0
游客组