fg603603
一代宗师

[更 早] [其他] [动作] [WEB-1080P] 皇家師姐III雌雄大盜 In.The.Line.Of.Duty.3.1988.CHINESE.ENSUBBED.1080p.AMZN.WEBRip.DDP2.0

-->

帖子完整标题:皇家師姐III雌雄大盜 In.The.Line.Of.Duty.3.1988.CHINESE.ENSUBBED.1080p.AMZN.WEBRip.DDP2.0.x264-QOQ 5.93GB



◎译  名 皇家师姐III雌雄大盗/Force of the Dragon/In the Line of Duty - Part 3/In the Line of Duty III/Yes Madam 2/皇家师姐之III雌雄大盜/皇家警察任务系列之3雌雄大盗
◎片  名 皇家師姐III雌雄大盜
◎年  代 1988
◎产  地 中国香港
◎类  别 动作
◎语  言 粤语,汉语普通话
◎上映日期 1988-09-23(中国香港)
◎豆瓣评分 6.2/10 from 781 users
◎豆瓣链接 https://movie.douban.com/subject/1854964/
◎片  长 84 分钟(dvd version)
◎导  演 袁振洋 Brandy Yuen / 黄岳泰 Arthur Wong
◎编  剧 罗大文 Tai-Man Law / 陈翘英 Kiu-Ying Chan / 叶广俭 Kwong Kim Yip / 袁若光 Patrick Yuen Yeuk-Kwong
◎主  演 杨丽菁 Cynthia Khan
      吴耀汉 Richard Ng
      吴君如 Sandra Ng
      曾志伟 Eric Tsang
      冯淬帆 Stanley Fung
      黄锦燊 Melvin Wong
      狄威 Dick Wei
      翁世杰 Sai-Kit Yung
      藤冈弘 Hiroshi Fujioka
      西协美智子 Michiko Nishiwaki
      岳华 Hua Yueh
      秦沛 Paul Chun
      袁若光 Patrick Yuen Yeuk-Kwong
      仇云波 Robin Shou
      马斯晨 Season Ma
      李健生 Chris Lee

◎标  签 动作 | 香港 | 香港电影 | 杨丽菁 | 警匪 | 吴君如 | 1988 | 雌雄大盗

◎简  介

  日本珠宝商人山本(岳华 饰)在东京举行珠宝展览会期间遭到雌雄大盗中川和西协美智子的血腥洗劫,警官藤冈弘的助手在枪战中身亡。在此之后中川和西协赶赴香港,准备采购军火支持日本赤军的运动。
  
  得知消息的藤冈亦尾随来港,香港警方派出阿丽(杨丽菁 饰)接机,同期山本也抵达香港。藤冈埋怨香港警方办事不力,在酒吧中偶遇西协,引发枪战,造成数人死亡。被港警扣留准备遣返日本的藤冈设法逃出,追至山本住处,雌雄大盗尾随前来。双方发生新一轮的火拼……

Video
ID : 1
Format : AVC
Format/Info : Advanced Video Codec
Format profile : [email protected]
Format settings : CABAC / 4 Ref Frames
Format settings, CABAC : Yes
Format settings, Reference frames : 4 frames
Codec ID : V_MPEG4/ISO/AVC
Duration : 1 h 24 min
Bit rate mode : Constant
Bit rate : 10 000 kb/s
Width : 1 920 pixels
Height : 1 080 pixels
Display aspect ratio : 16:9
Frame rate mode : Constant
Frame rate : 23.976 (24000/1001/189150) FPS
Color space : YUV
Chroma subsampling : 4:2:0
Bit depth : 8 bits
Scan type : Progressive
Bits/(Pixel*Frame) : 0.201
Stream size : 5.80 GiB (98%)
Default : Yes
Forced : No
Color range : Limited
Color primaries : BT.709
Transfer characteristics : BT.709
Matrix coefficients : BT.709

Audio
ID : 2
Format : E-AC-3
Format/Info : Enhanced AC-3
Commercial name : Dolby Digital Plus
Codec ID : A_EAC3
Duration : 1 h 24 min
Bit rate mode : Constant
Bit rate : 224 kb/s
Channel(s) : 2 channels
Channel layout : L R
Sampling rate : 48.0 kHz
Frame rate : 31.250 FPS (1536 SPF)
Compression mode : Lossy
Stream size : 135 MiB (2%)
Language : Chinese
Service kind : Complete Main
Default : Yes
Forced : No

Text #1
ID : 3
Format : UTF-8
Codec ID : S_TEXT/UTF8
Codec ID/Info : UTF-8 Plain Text
Duration : 10 min 14 s
Bit rate : 0 b/s
Count of elements : 2
Stream size : 8.00 Bytes (0%)
Language : English
Default : No
Forced : No

Text #2
ID : 4
Format : UTF-8
Codec ID : S_TEXT/UTF8
Codec ID/Info : UTF-8 Plain Text
Duration : 1 h 21 min
Bit rate : 5 b/s
Count of elements : 277
Stream size : 3.48 KiB (0%)
Title : SDH
Language : English
Default : No
Forced : No





1 个附件 售价 大小 下载 时间

In.The.Line.Of.Duty.3.1988.CHINESE.ENSUBBED.1080p.AMZN.WEBRip.DDP2.0.x264-QOQ.torrent 0 金币 15.51K 3493 次 5天前

#1楼
发帖时间:2021-10-14 00:10:01   |   回复数:1
jokingcheung
一代宗师
谢谢分享
4天前 #2楼
游客组